<?xml version="1.0" standalone="no"?>
<!DOCTYPE svg PUBLIC "-//W3C//DTD SVG 1.1//EN" "http://www.w3.org/Graphics/SVG/1.1/DTD/svg11.dtd" >
<svg>
<metadata>
Created by FontForge 20120731 at Wed Mar 19 15:23:01 2025
 By www
(c) 2015-2017 Apple Inc. All rights reserved.
</metadata>
<defs>
<font id="SFProText-Light" horiz-adv-x="1800" >
  <font-face 
    font-family="SF Pro Text"
    font-weight="300"
    font-stretch="normal"
    units-per-em="2048"
    panose-1="0 0 4 0 0 0 0 0 0 0"
    ascent="1638"
    descent="-410"
    x-height="1077"
    cap-height="1443"
    bbox="-561 -549 2661 2183"
    underline-thickness="95"
    underline-position="-275"
    unicode-range="U+0020-1F189"
  />
<missing-glyph horiz-adv-x="2048" 
d="M100 -494v308h1848v-308h-1848zM100 -67v308h1848v-308h-1848zM100 361v307h1848v-307h-1848zM100 788v307h1848v-307h-1848zM100 1215v308h1848v-308h-1848zM100 1642v308h1848v-308h-1848z" />
    <glyph glyph-name="uni2460" unicode="&#x31;&#x20dd;" 
d="M983 382h-102v589h-5l-170 -114v95l175 118h102v-688zM900 54q133 0 253.5 52t206.5 139.5t136.5 208.5t50.5 254t-50.5 253.5t-136.5 208t-206.5 139.5t-253.5 52t-253.5 -52t-206.5 -139.5t-136.5 -208t-50.5 -253.5t50.5 -254t136.5 -208.5t206.5 -139.5t253.5 -52z
M900 -46q-153 0 -292.5 60t-240.5 161t-161 241t-60 292q0 153 60 292.5t161 241t240.5 161.5t292.5 60t292.5 -60t240.5 -161.5t161 -241t60 -292.5q0 -152 -60 -292t-161 -241t-240.5 -161t-292.5 -60z" />
    <glyph glyph-name="uni2461" unicode="&#x32;&#x20dd;" 
d="M765 876h-99v4q0 84 63.5 144t171.5 60q103 0 166 -53.5t63 -136.5q0 -39 -17.5 -77.5t-39 -65t-64.5 -72.5l-194 -209v-5h331v-83h-472v63l271 290q41 44 62 78.5t21 73.5q0 52 -36 84t-93 32q-60 0 -97 -35.5t-37 -87.5v-4zM900 54q133 0 253.5 52t206.5 139.5
t136.5 208.5t50.5 254t-50.5 253.5t-136.5 208t-206.5 139.5t-253.5 52t-253.5 -52t-206.5 -139.5t-136.5 -208t-50.5 -253.5t50.5 -254t136.5 -208.5t206.5 -139.5t253.5 -52zM900 -46q-153 0 -292.5 60t-240.5 161t-161 241t-60 292q0 153 60 292.5t161 241t240.5 161.5
t292.5 60t292.5 -60t240.5 -161.5t161 -241t60 -292.5q0 -152 -60 -292t-161 -241t-240.5 -161t-292.5 -60z" />
    <glyph glyph-name="uni2462" unicode="&#x33;&#x20dd;" 
d="M822 698v79h78q56 0 93.5 33t37.5 83q-1 50 -38 81t-95 31q-55 0 -92.5 -29.5t-40.5 -70.5h-96q2 76 65 127t166 52q103 0 167 -50t66 -127q1 -65 -41.5 -109t-94.5 -53v-6q62 -6 110 -50.5t49 -117.5q1 -91 -73 -147t-185 -56q-107 0 -173.5 52t-71.5 130h96
q4 -43 46.5 -72.5t103.5 -29.5q69 0 112 35.5t43 91.5q-2 53 -43.5 88t-106.5 35h-82zM900 54q133 0 253.5 52t206.5 139.5t136.5 208.5t50.5 254t-50.5 253.5t-136.5 208t-206.5 139.5t-253.5 52t-253.5 -52t-206.5 -139.5t-136.5 -208t-50.5 -253.5t50.5 -254
t136.5 -208.5t206.5 -139.5t253.5 -52zM900 -46q-153 0 -292.5 60t-240.5 161t-161 241t-60 292q0 153 60 292.5t161 241t240.5 161.5t292.5 60t292.5 -60t240.5 -161.5t161 -241t60 -292.5q0 -152 -60 -292t-161 -241t-240.5 -161t-292.5 -60z" />
    <glyph glyph-name="uni2463" unicode="&#x34;&#x20dd;" 
d="M898 1070h151v-465h97v-82h-97v-141h-97v141h-349v85q27 47 69 114.5t72 113.5t84.5 129t69.5 105zM701 605h251v387h-6q-157 -230 -245 -383v-4zM900 54q133 0 253.5 52t206.5 139.5t136.5 208.5t50.5 254t-50.5 253.5t-136.5 208t-206.5 139.5t-253.5 52t-253.5 -52
t-206.5 -139.5t-136.5 -208t-50.5 -253.5t50.5 -254t136.5 -208.5t206.5 -139.5t253.5 -52zM900 -46q-153 0 -292.5 60t-240.5 161t-161 241t-60 292q0 153 60 292.5t161 241t240.5 161.5t292.5 60t292.5 -60t240.5 -161.5t161 -241t60 -292.5q0 -152 -60 -292t-161 -241
t-240.5 -161t-292.5 -60z" />
    <glyph glyph-name="uni2464" unicode="&#x35;&#x20dd;" 
d="M659 549h96q9 -46 51 -73t97 -27q64 0 109.5 43t45.5 113q0 65 -44 106t-109 41q-91 0 -141 -76h-90l31 395h416v-82h-332l-19 -225h5q19 27 60 47t94 20q98 0 164 -61t66 -162q0 -107 -72.5 -173.5t-188.5 -66.5q-99 0 -166.5 52t-72.5 129zM900 54q133 0 253.5 52
t206.5 139.5t136.5 208.5t50.5 254t-50.5 253.5t-136.5 208t-206.5 139.5t-253.5 52t-253.5 -52t-206.5 -139.5t-136.5 -208t-50.5 -253.5t50.5 -254t136.5 -208.5t206.5 -139.5t253.5 -52zM900 -46q-153 0 -292.5 60t-240.5 161t-161 241t-60 292q0 153 60 292.5t161 241
t240.5 161.5t292.5 60t292.5 -60t240.5 -161.5t161 -241t60 -292.5q0 -152 -60 -292t-161 -241t-240.5 -161t-292.5 -60z" />
    <glyph glyph-name="uni2465" unicode="&#x36;&#x20dd;" 
d="M1151 606q0 -105 -70 -171.5t-181 -66.5t-181.5 67.5t-70.5 175.5q0 120 99 253q4 8 75 105t79 105h119q-20 -20 -191 -248q-12 -15 -30 -45l6 -1q50 47 129 47q94 0 155.5 -63t61.5 -158zM747 602q0 -64 43.5 -107t108.5 -43q66 0 109 42.5t43 107.5t-43 108t-109 43
q-65 0 -108.5 -43t-43.5 -108zM900 54q133 0 253.5 52t206.5 139.5t136.5 208.5t50.5 254t-50.5 253.5t-136.5 208t-206.5 139.5t-253.5 52t-253.5 -52t-206.5 -139.5t-136.5 -208t-50.5 -253.5t50.5 -254t136.5 -208.5t206.5 -139.5t253.5 -52zM900 -46q-153 0 -292.5 60
t-240.5 161t-161 241t-60 292q0 153 60 292.5t161 241t240.5 161.5t292.5 60t292.5 -60t240.5 -161.5t161 -241t60 -292.5q0 -152 -60 -292t-161 -241t-240.5 -161t-292.5 -60z" />
    <glyph glyph-name="uni2466" unicode="&#x37;&#x20dd;" 
d="M680 1057h473v-84l-296 -604h-109l301 600v6h-369v82zM900 54q133 0 253.5 52t206.5 139.5t136.5 208.5t50.5 254t-50.5 253.5t-136.5 208t-206.5 139.5t-253.5 52t-253.5 -52t-206.5 -139.5t-136.5 -208t-50.5 -253.5t50.5 -254t136.5 -208.5t206.5 -139.5t253.5 -52z
M900 -46q-153 0 -292.5 60t-240.5 161t-161 241t-60 292q0 153 60 292.5t161 241t240.5 161.5t292.5 60t292.5 -60t240.5 -161.5t161 -241t60 -292.5q0 -152 -60 -292t-161 -241t-240.5 -161t-292.5 -60z" />
    <glyph glyph-name="uni2467" unicode="&#x38;&#x20dd;" 
d="M901 444q71 0 116.5 37t45.5 95q0 57 -45.5 93.5t-116.5 36.5t-117.5 -37t-46.5 -93q0 -58 46.5 -95t117.5 -37zM901 778q59 0 97.5 32.5t38.5 83.5q0 50 -38 82t-98 32t-98.5 -32t-38.5 -82q0 -51 38.5 -83.5t98.5 -32.5zM899 368q-117 0 -190 56t-73 147q0 63 42 111
t108 61v5q-56 17 -88.5 58.5t-32.5 95.5q0 80 66.5 131t169.5 51t169.5 -51.5t66.5 -130.5q0 -54 -33.5 -96t-88.5 -58v-5q66 -13 108 -61t42 -111q0 -90 -74 -146.5t-192 -56.5zM900 54q133 0 253.5 52t206.5 139.5t136.5 208.5t50.5 254t-50.5 253.5t-136.5 208
t-206.5 139.5t-253.5 52t-253.5 -52t-206.5 -139.5t-136.5 -208t-50.5 -253.5t50.5 -254t136.5 -208.5t206.5 -139.5t253.5 -52zM900 -46q-153 0 -292.5 60t-240.5 161t-161 241t-60 292q0 153 60 292.5t161 241t240.5 161.5t292.5 60t292.5 -60t240.5 -161.5t161 -241
t60 -292.5q0 -152 -60 -292t-161 -241t-240.5 -161t-292.5 -60z" />
    <glyph glyph-name="uni2468" unicode="&#x39;&#x20dd;" 
d="M650 842q0 105 70 171.5t181 66.5t181 -67.5t70 -174.5q0 -119 -98 -254q-5 -9 -76 -105.5t-79 -104.5h-118q23 25 190 248q13 18 31 45l-7 1q-50 -47 -128 -47q-94 0 -155.5 63t-61.5 158zM1053 846q0 65 -43 108t-109 43q-65 0 -108.5 -43t-43.5 -108q0 -64 43.5 -107
t108.5 -43q66 0 109 42.5t43 107.5zM900 54q133 0 253.5 52t206.5 139.5t136.5 208.5t50.5 254t-50.5 253.5t-136.5 208t-206.5 139.5t-253.5 52t-253.5 -52t-206.5 -139.5t-136.5 -208t-50.5 -253.5t50.5 -254t136.5 -208.5t206.5 -139.5t253.5 -52zM900 -46
q-153 0 -292.5 60t-240.5 161t-161 241t-60 292q0 153 60 292.5t161 241t240.5 161.5t292.5 60t292.5 -60t240.5 -161.5t161 -241t60 -292.5q0 -152 -60 -292t-161 -241t-240.5 -161t-292.5 -60z" />
    <glyph glyph-name="uni24B6" unicode="A&#x20dd;" 
d="M788 673h225l-109 312h-8zM694 398h-104l251 688h118l252 -688h-105l-69 199h-273zM900 54q133 0 253.5 52t206.5 139.5t136.5 208.5t50.5 254t-50.5 253.5t-136.5 208t-206.5 139.5t-253.5 52t-253.5 -52t-206.5 -139.5t-136.5 -208t-50.5 -253.5t50.5 -254
t136.5 -208.5t206.5 -139.5t253.5 -52zM900 -46q-153 0 -292.5 60t-240.5 161t-161 241t-60 292q0 153 60 292.5t161 241t240.5 161.5t292.5 60t292.5 -60t240.5 -161.5t161 -241t60 -292.5q0 -152 -60 -292t-161 -241t-240.5 -161t-292.5 -60z" />
    <glyph glyph-name="uni24B7" unicode="B&#x20dd;" 
d="M670 381v689h277q94 0 150 -47t56 -123q0 -60 -32.5 -100t-85.5 -53v-4q70 -9 113.5 -53.5t43.5 -116.5q0 -90 -67 -141t-179 -51h-276zM771 991v-219h126q76 0 115.5 29.5t39.5 81.5q0 51 -33 79.5t-93 28.5h-155zM771 698v-238h134q94 0 138 29t44 88q0 57 -38.5 89
t-108.5 32h-169zM900 54q133 0 253.5 52t206.5 139.5t136.5 208.5t50.5 254t-50.5 253.5t-136.5 208t-206.5 139.5t-253.5 52t-253.5 -52t-206.5 -139.5t-136.5 -208t-50.5 -253.5t50.5 -254t136.5 -208.5t206.5 -139.5t253.5 -52zM900 -46q-153 0 -292.5 60t-240.5 161
t-161 241t-60 292q0 153 60 292.5t161 241t240.5 161.5t292.5 60t292.5 -60t240.5 -161.5t161 -241t60 -292.5q0 -152 -60 -292t-161 -241t-240.5 -161t-292.5 -60z" />
    <glyph glyph-name="uni24B8" unicode="C&#x20dd;" 
d="M1088 588h104q-14 -101 -93.5 -162.5t-197.5 -61.5q-142 0 -229 99t-87 259t87 259t229 99q120 0 200.5 -64.5t91.5 -168.5h-102q-8 65 -60.5 107t-127.5 42q-96 0 -155.5 -76t-59.5 -198q0 -123 59.5 -198.5t155.5 -75.5q74 0 125 39.5t60 100.5zM900 54q133 0 253.5 52
t206.5 139.5t136.5 208.5t50.5 254t-50.5 253.5t-136.5 208t-206.5 139.5t-253.5 52t-253.5 -52t-206.5 -139.5t-136.5 -208t-50.5 -253.5t50.5 -254t136.5 -208.5t206.5 -139.5t253.5 -52zM900 -46q-153 0 -292.5 60t-240.5 161t-161 241t-60 292q0 153 60 292.5t161 241
t240.5 161.5t292.5 60t292.5 -60t240.5 -161.5t161 -241t60 -292.5q0 -152 -60 -292t-161 -241t-240.5 -161t-292.5 -60z" />
    <glyph glyph-name="uni24B9" unicode="D&#x20dd;" 
d="M667 1062h238q154 0 235 -88t81 -250q0 -165 -81 -253.5t-235 -88.5h-238v680zM769 980v-515h123q222 0 222 257q0 126 -56.5 192t-165.5 66h-123zM900 54q133 0 253.5 52t206.5 139.5t136.5 208.5t50.5 254t-50.5 253.5t-136.5 208t-206.5 139.5t-253.5 52t-253.5 -52
t-206.5 -139.5t-136.5 -208t-50.5 -253.5t50.5 -254t136.5 -208.5t206.5 -139.5t253.5 -52zM900 -46q-153 0 -292.5 60t-240.5 161t-161 241t-60 292q0 153 60 292.5t161 241t240.5 161.5t292.5 60t292.5 -60t240.5 -161.5t161 -241t60 -292.5q0 -152 -60 -292t-161 -241
t-240.5 -161t-292.5 -60z" />
    <glyph glyph-name="uni24BA" unicode="E&#x20dd;" 
d="M1127 461v-83h-444v688h444v-82h-343v-216h324v-80h-324v-227h343zM900 54q133 0 253.5 52t206.5 139.5t136.5 208.5t50.5 254t-50.5 253.5t-136.5 208t-206.5 139.5t-253.5 52t-253.5 -52t-206.5 -139.5t-136.5 -208t-50.5 -253.5t50.5 -254t136.5 -208.5t206.5 -139.5
t253.5 -52zM900 -46q-153 0 -292.5 60t-240.5 161t-161 241t-60 292q0 153 60 292.5t161 241t240.5 161.5t292.5 60t292.5 -60t240.5 -161.5t161 -241t60 -292.5q0 -152 -60 -292t-161 -241t-240.5 -161t-292.5 -60z" />
    <glyph glyph-name="uni24BB" unicode="F&#x20dd;" 
d="M813 378h-103v688h439v-83h-336v-229h308v-82h-308v-294zM900 54q133 0 253.5 52t206.5 139.5t136.5 208.5t50.5 254t-50.5 253.5t-136.5 208t-206.5 139.5t-253.5 52t-253.5 -52t-206.5 -139.5t-136.5 -208t-50.5 -253.5t50.5 -254t136.5 -208.5t206.5 -139.5t253.5 -52
zM900 -46q-153 0 -292.5 60t-240.5 161t-161 241t-60 292q0 153 60 292.5t161 241t240.5 161.5t292.5 60t292.5 -60t240.5 -161.5t161 -241t60 -292.5q0 -152 -60 -292t-161 -241t-240.5 -161t-292.5 -60z" />
    <glyph glyph-name="uni24BC" unicode="G&#x20dd;" 
d="M1091 608v51h-183v77h280v-107q0 -120 -75 -192.5t-210 -72.5q-142 0 -230 99t-88 259t88 259t230 99q117 0 196.5 -62t92.5 -161h-102q-10 61 -61.5 100t-124.5 39q-97 0 -156.5 -75.5t-59.5 -198.5t59.5 -198.5t156.5 -75.5q88 0 137.5 43t49.5 117zM900 54
q133 0 253.5 52t206.5 139.5t136.5 208.5t50.5 254t-50.5 253.5t-136.5 208t-206.5 139.5t-253.5 52t-253.5 -52t-206.5 -139.5t-136.5 -208t-50.5 -253.5t50.5 -254t136.5 -208.5t206.5 -139.5t253.5 -52zM900 -46q-153 0 -292.5 60t-240.5 161t-161 241t-60 292
q0 153 60 292.5t161 241t240.5 161.5t292.5 60t292.5 -60t240.5 -161.5t161 -241t60 -292.5q0 -152 -60 -292t-161 -241t-240.5 -161t-292.5 -60z" />
    <glyph glyph-name="uni24BD" unicode="H&#x20dd;" 
d="M1180 378h-102v313h-355v-313h-102v688h102v-292h355v292h102v-688zM900 54q133 0 253.5 52t206.5 139.5t136.5 208.5t50.5 254t-50.5 253.5t-136.5 208t-206.5 139.5t-253.5 52t-253.5 -52t-206.5 -139.5t-136.5 -208t-50.5 -253.5t50.5 -254t136.5 -208.5t206.5 -139.5
t253.5 -52zM900 -46q-153 0 -292.5 60t-240.5 161t-161 241t-60 292q0 153 60 292.5t161 241t240.5 161.5t292.5 60t292.5 -60t240.5 -161.5t161 -241t60 -292.5q0 -152 -60 -292t-161 -241t-240.5 -161t-292.5 -60z" />
    <glyph glyph-name="uni24BE" unicode="I&#x20dd;" 
d="M952 378h-104v688h104v-688zM900 54q133 0 253.5 52t206.5 139.5t136.5 208.5t50.5 254t-50.5 253.5t-136.5 208t-206.5 139.5t-253.5 52t-253.5 -52t-206.5 -139.5t-136.5 -208t-50.5 -253.5t50.5 -254t136.5 -208.5t206.5 -139.5t253.5 -52zM900 -46q-153 0 -292.5 60
t-240.5 161t-161 241t-60 292q0 153 60 292.5t161 241t240.5 161.5t292.5 60t292.5 -60t240.5 -161.5t161 -241t60 -292.5q0 -152 -60 -292t-161 -241t-240.5 -161t-292.5 -60z" />
    <glyph glyph-name="uni24BF" unicode="J&#x20dd;" 
d="M651 557h99q1 -46 34 -75t83 -29q57 0 87.5 34t30.5 94v485h102v-482q0 -103 -59 -161t-161 -58q-99 0 -157.5 54.5t-58.5 137.5zM900 54q133 0 253.5 52t206.5 139.5t136.5 208.5t50.5 254t-50.5 253.5t-136.5 208t-206.5 139.5t-253.5 52t-253.5 -52t-206.5 -139.5
t-136.5 -208t-50.5 -253.5t50.5 -254t136.5 -208.5t206.5 -139.5t253.5 -52zM900 -46q-153 0 -292.5 60t-240.5 161t-161 241t-60 292q0 153 60 292.5t161 241t240.5 161.5t292.5 60t292.5 -60t240.5 -161.5t161 -241t60 -292.5q0 -152 -60 -292t-161 -241t-240.5 -161
t-292.5 -60z" />
    <glyph glyph-name="uni24C0" unicode="K&#x20dd;" 
d="M1190 1066l-270 -294l285 -394h-127l-234 326l-87 -91v-235h-102v688h102v-332h5l310 332h118zM900 54q133 0 253.5 52t206.5 139.5t136.5 208.5t50.5 254t-50.5 253.5t-136.5 208t-206.5 139.5t-253.5 52t-253.5 -52t-206.5 -139.5t-136.5 -208t-50.5 -253.5t50.5 -254
t136.5 -208.5t206.5 -139.5t253.5 -52zM900 -46q-153 0 -292.5 60t-240.5 161t-161 241t-60 292q0 153 60 292.5t161 241t240.5 161.5t292.5 60t292.5 -60t240.5 -161.5t161 -241t60 -292.5q0 -152 -60 -292t-161 -241t-240.5 -161t-292.5 -60z" />
    <glyph glyph-name="uni24C1" unicode="L&#x20dd;" 
d="M1157 463v-85h-434v688h103v-603h331zM900 54q133 0 253.5 52t206.5 139.5t136.5 208.5t50.5 254t-50.5 253.5t-136.5 208t-206.5 139.5t-253.5 52t-253.5 -52t-206.5 -139.5t-136.5 -208t-50.5 -253.5t50.5 -254t136.5 -208.5t206.5 -139.5t253.5 -52zM900 -46
q-153 0 -292.5 60t-240.5 161t-161 241t-60 292q0 153 60 292.5t161 241t240.5 161.5t292.5 60t292.5 -60t240.5 -161.5t161 -241t60 -292.5q0 -152 -60 -292t-161 -241t-240.5 -161t-292.5 -60z" />
    <glyph glyph-name="uni24C2" unicode="M&#x20dd;" 
d="M654 378h-92v688h110l227 -564h4l227 564h108v-688h-92v521h-5l-202 -507h-77l-202 507h-6v-521zM900 54q133 0 253.5 52t206.5 139.5t136.5 208.5t50.5 254t-50.5 253.5t-136.5 208t-206.5 139.5t-253.5 52t-253.5 -52t-206.5 -139.5t-136.5 -208t-50.5 -253.5
t50.5 -254t136.5 -208.5t206.5 -139.5t253.5 -52zM900 -46q-153 0 -292.5 60t-240.5 161t-161 241t-60 292q0 153 60 292.5t161 241t240.5 161.5t292.5 60t292.5 -60t240.5 -161.5t161 -241t60 -292.5q0 -152 -60 -292t-161 -241t-240.5 -161t-292.5 -60z" />
    <glyph glyph-name="uni24C3" unicode="N&#x20dd;" 
d="M721 378h-98v688h95l356 -527h5v527h98v-688h-95l-356 529h-5v-529zM900 54q133 0 253.5 52t206.5 139.5t136.5 208.5t50.5 254t-50.5 253.5t-136.5 208t-206.5 139.5t-253.5 52t-253.5 -52t-206.5 -139.5t-136.5 -208t-50.5 -253.5t50.5 -254t136.5 -208.5t206.5 -139.5
t253.5 -52zM900 -46q-153 0 -292.5 60t-240.5 161t-161 241t-60 292q0 153 60 292.5t161 241t240.5 161.5t292.5 60t292.5 -60t240.5 -161.5t161 -241t60 -292.5q0 -152 -60 -292t-161 -241t-240.5 -161t-292.5 -60z" />
    <glyph glyph-name="uni24C4" unicode="O&#x20dd;" 
d="M900 448q96 0 157 74t61 200t-61 200t-157 74t-157 -74t-61 -200t61 -200t157 -74zM900 364q-140 0 -230.5 97t-90.5 261t90.5 261t230.5 97t230.5 -97t90.5 -261t-90.5 -261t-230.5 -97zM900 54q133 0 253.5 52t206.5 139.5t136.5 208.5t50.5 254t-50.5 253.5
t-136.5 208t-206.5 139.5t-253.5 52t-253.5 -52t-206.5 -139.5t-136.5 -208t-50.5 -253.5t50.5 -254t136.5 -208.5t206.5 -139.5t253.5 -52zM900 -46q-153 0 -292.5 60t-240.5 161t-161 241t-60 292q0 153 60 292.5t161 241t240.5 161.5t292.5 60t292.5 -60t240.5 -161.5
t161 -241t60 -292.5q0 -152 -60 -292t-161 -241t-240.5 -161t-292.5 -60z" />
    <glyph glyph-name="uni24C5" unicode="P&#x20dd;" 
d="M956 1066q106 0 169 -61.5t63 -157.5q0 -97 -63 -158t-169 -61h-165v-250h-102v688h267zM1083 847q0 64 -38 101t-103 37h-151v-276h151q65 0 103 37t38 101zM900 54q133 0 253.5 52t206.5 139.5t136.5 208.5t50.5 254t-50.5 253.5t-136.5 208t-206.5 139.5t-253.5 52
t-253.5 -52t-206.5 -139.5t-136.5 -208t-50.5 -253.5t50.5 -254t136.5 -208.5t206.5 -139.5t253.5 -52zM900 -46q-153 0 -292.5 60t-240.5 161t-161 241t-60 292q0 153 60 292.5t161 241t240.5 161.5t292.5 60t292.5 -60t240.5 -161.5t161 -241t60 -292.5q0 -152 -60 -292
t-161 -241t-240.5 -161t-292.5 -60z" />
    <glyph glyph-name="uni24C6" unicode="Q&#x20dd;" 
d="M1185 303h-102l-61 84q-57 -23 -122 -23q-140 0 -230.5 97t-90.5 261t90.5 261t230.5 97t230.5 -97t90.5 -261q0 -196 -127 -295zM900 448q38 0 68 12l-88 122h101l57 -78q80 75 80 218q0 126 -61 200t-157 74t-157 -74t-61 -200t61 -200t157 -74zM900 54q133 0 253.5 52
t206.5 139.5t136.5 208.5t50.5 254t-50.5 253.5t-136.5 208t-206.5 139.5t-253.5 52t-253.5 -52t-206.5 -139.5t-136.5 -208t-50.5 -253.5t50.5 -254t136.5 -208.5t206.5 -139.5t253.5 -52zM900 -46q-153 0 -292.5 60t-240.5 161t-161 241t-60 292q0 153 60 292.5t161 241
t240.5 161.5t292.5 60t292.5 -60t240.5 -161.5t161 -241t60 -292.5q0 -152 -60 -292t-161 -241t-240.5 -161t-292.5 -60z" />
    <glyph glyph-name="uni24C7" unicode="R&#x20dd;" 
d="M929 1066q109 0 173 -57.5t64 -152.5q0 -72 -40 -123.5t-102 -70.5l153 -284h-115l-140 269h-159v-269h-100v688h266zM763 725h151q68 0 107 34t39 94q0 62 -39 97.5t-104 35.5h-154v-261zM900 54q133 0 253.5 52t206.5 139.5t136.5 208.5t50.5 254t-50.5 253.5
t-136.5 208t-206.5 139.5t-253.5 52t-253.5 -52t-206.5 -139.5t-136.5 -208t-50.5 -253.5t50.5 -254t136.5 -208.5t206.5 -139.5t253.5 -52zM900 -46q-153 0 -292.5 60t-240.5 161t-161 241t-60 292q0 153 60 292.5t161 241t240.5 161.5t292.5 60t292.5 -60t240.5 -161.5
t161 -241t60 -292.5q0 -152 -60 -292t-161 -241t-240.5 -161t-292.5 -60z" />
    <glyph glyph-name="uni24C8" unicode="S&#x20dd;" 
d="M627 567h101q5 -53 54.5 -87.5t120.5 -34.5t117.5 33.5t46.5 84.5q0 78 -130 110l-115 26q-175 43 -175 182q0 89 71.5 144.5t184.5 55.5t183.5 -54t71.5 -142h-98q-5 50 -49.5 83t-108.5 33t-108 -33t-44 -82q0 -35 30 -61.5t83 -38.5l114 -26q101 -24 146.5 -68.5
t45.5 -119.5q0 -95 -74.5 -151.5t-199.5 -56.5q-119 0 -192 55.5t-76 147.5zM900 54q133 0 253.5 52t206.5 139.5t136.5 208.5t50.5 254t-50.5 253.5t-136.5 208t-206.5 139.5t-253.5 52t-253.5 -52t-206.5 -139.5t-136.5 -208t-50.5 -253.5t50.5 -254t136.5 -208.5
t206.5 -139.5t253.5 -52zM900 -46q-153 0 -292.5 60t-240.5 161t-161 241t-60 292q0 153 60 292.5t161 241t240.5 161.5t292.5 60t292.5 -60t240.5 -161.5t161 -241t60 -292.5q0 -152 -60 -292t-161 -241t-240.5 -161t-292.5 -60z" />
    <glyph glyph-name="uni24C9" unicode="T&#x20dd;" 
d="M952 358h-103v604h-219v84h541v-84h-219v-604zM900 54q133 0 253.5 52t206.5 139.5t136.5 208.5t50.5 254t-50.5 253.5t-136.5 208t-206.5 139.5t-253.5 52t-253.5 -52t-206.5 -139.5t-136.5 -208t-50.5 -253.5t50.5 -254t136.5 -208.5t206.5 -139.5t253.5 -52zM900 -46
q-153 0 -292.5 60t-240.5 161t-161 241t-60 292q0 153 60 292.5t161 241t240.5 161.5t292.5 60t292.5 -60t240.5 -161.5t161 -241t60 -292.5q0 -152 -60 -292t-161 -241t-240.5 -161t-292.5 -60z" />
    <glyph glyph-name="uni24CA" unicode="U&#x20dd;" 
d="M900 428q79 0 128 46t49 125v446h102v-453q0 -113 -76.5 -181.5t-202.5 -68.5t-202.5 68.5t-76.5 181.5v453h102v-446q0 -79 49 -125t128 -46zM900 54q133 0 253.5 52t206.5 139.5t136.5 208.5t50.5 254t-50.5 253.5t-136.5 208t-206.5 139.5t-253.5 52t-253.5 -52
t-206.5 -139.5t-136.5 -208t-50.5 -253.5t50.5 -254t136.5 -208.5t206.5 -139.5t253.5 -52zM900 -46q-153 0 -292.5 60t-240.5 161t-161 241t-60 292q0 153 60 292.5t161 241t240.5 161.5t292.5 60t292.5 -60t240.5 -161.5t161 -241t60 -292.5q0 -152 -60 -292t-161 -241
t-240.5 -161t-292.5 -60z" />
    <glyph glyph-name="uni24CB" unicode="V&#x20dd;" 
d="M837 356l-253 688h118l195 -580h6l195 580h118l-253 -688h-126zM900 54q133 0 253.5 52t206.5 139.5t136.5 208.5t50.5 254t-50.5 253.5t-136.5 208t-206.5 139.5t-253.5 52t-253.5 -52t-206.5 -139.5t-136.5 -208t-50.5 -253.5t50.5 -254t136.5 -208.5t206.5 -139.5
t253.5 -52zM900 -46q-153 0 -292.5 60t-240.5 161t-161 241t-60 292q0 153 60 292.5t161 241t240.5 161.5t292.5 60t292.5 -60t240.5 -161.5t161 -241t60 -292.5q0 -152 -60 -292t-161 -241t-240.5 -161t-292.5 -60z" />
    <glyph glyph-name="uni24CC" unicode="W&#x20dd;" 
d="M900 894l-148 -538h-100l-188 688h112l129 -553h6l145 553h93l145 -553h5l129 553h112l-187 -688h-101l-148 538h-4zM900 54q133 0 253.5 52t206.5 139.5t136.5 208.5t50.5 254t-50.5 253.5t-136.5 208t-206.5 139.5t-253.5 52t-253.5 -52t-206.5 -139.5t-136.5 -208
t-50.5 -253.5t50.5 -254t136.5 -208.5t206.5 -139.5t253.5 -52zM900 -46q-153 0 -292.5 60t-240.5 161t-161 241t-60 292q0 153 60 292.5t161 241t240.5 161.5t292.5 60t292.5 -60t240.5 -161.5t161 -241t60 -292.5q0 -152 -60 -292t-161 -241t-240.5 -161t-292.5 -60z" />
    <glyph glyph-name="uni24CD" unicode="X&#x20dd;" 
d="M1187 1070l-231 -345l227 -343h-119l-173 268h-5l-174 -268h-114l228 345l-226 343h122l171 -271h6l171 271h117zM900 54q133 0 253.5 52t206.5 139.5t136.5 208.5t50.5 254t-50.5 253.5t-136.5 208t-206.5 139.5t-253.5 52t-253.5 -52t-206.5 -139.5t-136.5 -208
t-50.5 -253.5t50.5 -254t136.5 -208.5t206.5 -139.5t253.5 -52zM900 -46q-153 0 -292.5 60t-240.5 161t-161 241t-60 292q0 153 60 292.5t161 241t240.5 161.5t292.5 60t292.5 -60t240.5 -161.5t161 -241t60 -292.5q0 -152 -60 -292t-161 -241t-240.5 -161t-292.5 -60z" />
    <glyph glyph-name="uni24CE" unicode="Y&#x20dd;" 
d="M952 378h-103v282l-251 407h115l186 -309h4l186 309h113l-250 -406v-283zM900 54q133 0 253.5 52t206.5 139.5t136.5 208.5t50.5 254t-50.5 253.5t-136.5 208t-206.5 139.5t-253.5 52t-253.5 -52t-206.5 -139.5t-136.5 -208t-50.5 -253.5t50.5 -254t136.5 -208.5
t206.5 -139.5t253.5 -52zM900 -46q-153 0 -292.5 60t-240.5 161t-161 241t-60 292q0 153 60 292.5t161 241t240.5 161.5t292.5 60t292.5 -60t240.5 -161.5t161 -241t60 -292.5q0 -152 -60 -292t-161 -241t-240.5 -161t-292.5 -60z" />
    <glyph glyph-name="uni24CF" unicode="Z&#x20dd;" 
d="M637 382v70l388 529v6h-376v83h499v-70l-385 -529v-6h394v-83h-520zM900 54q133 0 253.5 52t206.5 139.5t136.5 208.5t50.5 254t-50.5 253.5t-136.5 208t-206.5 139.5t-253.5 52t-253.5 -52t-206.5 -139.5t-136.5 -208t-50.5 -253.5t50.5 -254t136.5 -208.5t206.5 -139.5
t253.5 -52zM900 -46q-153 0 -292.5 60t-240.5 161t-161 241t-60 292q0 153 60 292.5t161 241t240.5 161.5t292.5 60t292.5 -60t240.5 -161.5t161 -241t60 -292.5q0 -152 -60 -292t-161 -241t-240.5 -161t-292.5 -60z" />
    <glyph glyph-name="uni24EA" unicode="&#x23;&#x20dd;" 
d="M900 452q73 0 117 73t44 197q0 125 -44 197.5t-117 72.5t-117 -72.5t-44 -197.5q0 -124 44 -197t117 -73zM900 365q-116 0 -187.5 96t-71.5 261q0 166 71.5 262t187.5 96t187.5 -96t71.5 -262q0 -165 -71.5 -261t-187.5 -96zM900 54q133 0 253.5 52t206.5 139.5
t136.5 208.5t50.5 254t-50.5 253.5t-136.5 208t-206.5 139.5t-253.5 52t-253.5 -52t-206.5 -139.5t-136.5 -208t-50.5 -253.5t50.5 -254t136.5 -208.5t206.5 -139.5t253.5 -52zM900 -46q-153 0 -292.5 60t-240.5 161t-161 241t-60 292q0 153 60 292.5t161 241t240.5 161.5
t292.5 60t292.5 -60t240.5 -161.5t161 -241t60 -292.5q0 -152 -60 -292t-161 -241t-240.5 -161t-292.5 -60z" />
    <glyph glyph-name="uni24FF" unicode="&#x30;&#x20dd;&#x25cf;" 
d="M897 432q-76 0 -120 77.5t-44 212.5q0 136 44 213t120 77q77 0 121 -77t44 -213q0 -135 -44 -212.5t-121 -77.5zM897 332q131 0 209 105.5t78 284.5t-78 285t-209 106q-130 0 -208.5 -106t-78.5 -285t78.5 -284.5t208.5 -105.5zM900 -46q-153 0 -292.5 60t-240.5 161
t-161 240.5t-60 292.5t60 292.5t161 240.5t240.5 161t292.5 60t292.5 -60t240.5 -161t161 -240.5t60 -292.5t-60 -292.5t-161 -240.5t-240.5 -161t-292.5 -60z" />
    <glyph glyph-name="uni278A" unicode="&#x31;&#x20dd;&#x25cf;" 
d="M994 351v751h-117l-191 -130v-114l187 127h2v-634h119zM900 -46q-153 0 -292.5 60t-240.5 161t-161 240.5t-60 292.5t60 292.5t161 240.5t240.5 161t292.5 60t292.5 -60t240.5 -161t161 -240.5t60 -292.5t-60 -292.5t-161 -240.5t-240.5 -161t-292.5 -60z" />
    <glyph glyph-name="uni278B" unicode="&#x32;&#x20dd;&#x25cf;" 
d="M757 884v8q1 54 39 90.5t99 36.5q57 0 95.5 -33t38.5 -85q0 -43 -21.5 -79.5t-65.5 -82.5l-294 -313v-76h518v100h-354v1l216 230q63 69 92 117.5t29 109.5q0 91 -70.5 149.5t-181.5 58.5q-119 0 -187 -66t-70 -158v-8h117zM900 -46q-153 0 -292.5 60t-240.5 161
t-161 240.5t-60 292.5t60 292.5t161 240.5t240.5 161t292.5 60t292.5 -60t240.5 -161t161 -240.5t60 -292.5t-60 -292.5t-161 -240.5t-240.5 -161t-292.5 -60z" />
    <glyph glyph-name="uni278C" unicode="&#x33;&#x20dd;&#x25cf;" 
d="M810 691h93q67 0 110 -36t44 -92q0 -58 -44.5 -94.5t-117.5 -36.5q-63 1 -107 32t-51 76h-112q5 -88 78 -146t191 -58q122 0 203.5 62t80.5 162q-1 79 -51.5 127.5t-115.5 56.5v1q55 12 99 60t43 118q-2 84 -72.5 139.5t-182.5 55.5q-114 -1 -182.5 -57.5t-73.5 -144.5
h115q5 45 42.5 75t95.5 30q61 0 99.5 -32t38.5 -82q0 -52 -38 -86t-97 -34h-88v-96zM900 -46q-153 0 -292.5 60t-240.5 161t-161 240.5t-60 292.5t60 292.5t161 240.5t240.5 161t292.5 60t292.5 -60t240.5 -161t161 -240.5t60 -292.5t-60 -292.5t-161 -240.5t-240.5 -161
t-292.5 -60z" />
    <glyph glyph-name="uni278D" unicode="&#x34;&#x20dd;&#x25cf;" 
d="M893 1102q-266 -409 -319 -501v-97h375v-153h116v153h104v98h-104v500h-172zM690 604q88 150 258 401h1v-403h-259v2zM900 -46q-153 0 -292.5 60t-240.5 161t-161 240.5t-60 292.5t60 292.5t161 240.5t240.5 161t292.5 60t292.5 -60t240.5 -161t161 -240.5t60 -292.5
t-60 -292.5t-161 -240.5t-240.5 -161t-292.5 -60z" />
    <glyph glyph-name="uni278E" unicode="&#x35;&#x20dd;&#x25cf;" 
d="M632 539q5 -87 79 -144.5t185 -57.5q126 0 205 72.5t79 190.5q0 110 -72.5 177t-179.5 67q-56 0 -99 -20.5t-65 -49.5h-1l19 231h355v98h-455l-34 -434h106q52 80 148 80q68 0 113.5 -42.5t45.5 -110.5q0 -72 -47 -117t-113 -45q-57 0 -102 28.5t-54 76.5h-113zM900 -46
q-153 0 -292.5 60t-240.5 161t-161 240.5t-60 292.5t60 292.5t161 240.5t240.5 161t292.5 60t292.5 -60t240.5 -161t161 -240.5t60 -292.5t-60 -292.5t-161 -240.5t-240.5 -161t-292.5 -60z" />
    <glyph glyph-name="uni278F" unicode="&#x36;&#x20dd;&#x25cf;" 
d="M1173 597q0 104 -66 172t-167 68q-86 0 -138 -49l-7 2q7 12 38 54q28 39 106.5 141.5t92.5 119.5h-132q-12 -16 -87 -117.5t-80 -109.5q-107 -150 -107 -276q0 -117 76.5 -190t197.5 -73t197 72t76 186zM738 593q0 69 45.5 115t115.5 46t116 -46t46 -115t-46 -115
t-116 -46t-115.5 46t-45.5 115zM900 -46q-153 0 -292.5 60t-240.5 161t-161 240.5t-60 292.5t60 292.5t161 240.5t240.5 161t292.5 60t292.5 -60t240.5 -161t161 -240.5t60 -292.5t-60 -292.5t-161 -240.5t-240.5 -161t-292.5 -60z" />
    <glyph glyph-name="uni2790" unicode="&#x37;&#x20dd;&#x25cf;" 
d="M652 1095v-99h395v-2l-328 -649h129l322 652v98h-518zM900 -46q-153 0 -292.5 60t-240.5 161t-161 240.5t-60 292.5t60 292.5t161 240.5t240.5 161t292.5 60t292.5 -60t240.5 -161t161 -240.5t60 -292.5t-60 -292.5t-161 -240.5t-240.5 -161t-292.5 -60z" />
    <glyph glyph-name="uni2791" unicode="&#x38;&#x20dd;&#x25cf;" 
d="M898 788q-62 0 -101.5 33t-39.5 86q0 52 39.5 85t101.5 33t101.5 -33t39.5 -85t-39.5 -85.5t-101.5 -33.5zM898 428q-74 0 -122 39t-48 98q0 58 48 96.5t122 38.5q73 0 121 -38t48 -97t-48 -98t-121 -39zM898 336q128 0 208.5 62t80.5 161q0 68 -44 119.5t-117 67.5v1
q61 19 95.5 65t34.5 105q0 89 -72 145t-186 56t-186 -56t-72 -145q0 -59 34.5 -105t95.5 -65v-1q-73 -16 -117 -67.5t-44 -119.5q0 -99 80.5 -161t208.5 -62zM900 -46q-153 0 -292.5 60t-240.5 161t-161 240.5t-60 292.5t60 292.5t161 240.5t240.5 161t292.5 60t292.5 -60
t240.5 -161t161 -240.5t60 -292.5t-60 -292.5t-161 -240.5t-240.5 -161t-292.5 -60z" />
    <glyph glyph-name="uni2792" unicode="&#x39;&#x20dd;&#x25cf;" 
d="M1062 856q0 -69 -45.5 -115t-115.5 -46t-116 46t-46 115t46 115t116 46t115.5 -46t45.5 -115zM627 852q0 -104 66 -172t167 -68q86 0 138 49l7 -2q-6 -9 -37 -52q-28 -39 -106 -141t-94 -122h132q12 16 87 117.5t80 109.5q107 150 107 276q0 117 -76.5 190t-197.5 73
t-197 -72t-76 -186zM900 -46q-153 0 -292.5 60t-240.5 161t-161 240.5t-60 292.5t60 292.5t161 240.5t240.5 161t292.5 60t292.5 -60t240.5 -161t161 -240.5t60 -292.5t-60 -292.5t-161 -240.5t-240.5 -161t-292.5 -60z" />
    <glyph glyph-name="uni1F130" unicode="A&#x20de;" 
d="M788 660h225l-109 311h-8zM694 384h-104l251 689h118l252 -689h-105l-69 199h-273zM411 1439h978q102 0 170.5 -68t68.5 -168v-986q0 -100 -68.5 -167.5t-170.5 -67.5h-978q-101 0 -170 67.5t-69 167.5v986q0 100 69 168t170 68zM1527 1202q0 62 -41.5 103t-105.5 41
h-960q-63 0 -105 -40.5t-42 -103.5v-983q0 -63 42 -103.5t105 -40.5h960q64 0 105.5 40.5t41.5 103.5v983z" />
    <glyph glyph-name="uni1F131" unicode="B&#x20de;" 
d="M670 381v689h277q94 0 150 -47t56 -123q0 -60 -32.5 -100t-85.5 -53v-4q70 -9 113.5 -53.5t43.5 -116.5q0 -90 -67 -141t-179 -51h-276zM771 991v-219h126q76 0 115.5 29.5t39.5 81.5q0 51 -33 79.5t-93 28.5h-155zM771 698v-238h134q94 0 138 29t44 88q0 57 -38.5 89
t-108.5 32h-169zM411 1439h978q102 0 170.5 -68t68.5 -168v-986q0 -100 -68.5 -167.5t-170.5 -67.5h-978q-101 0 -170 67.5t-69 167.5v986q0 100 69 168t170 68zM1527 1202q0 62 -41.5 103t-105.5 41h-960q-63 0 -105 -40.5t-42 -103.5v-983q0 -63 42 -103.5t105 -40.5h960
q64 0 105.5 40.5t41.5 103.5v983z" />
    <glyph glyph-name="uni1F132" unicode="C&#x20de;" 
d="M1088 588h104q-14 -101 -93.5 -162.5t-197.5 -61.5q-142 0 -229 99t-87 259t87 259t229 99q120 0 200.5 -64.5t91.5 -168.5h-102q-8 65 -60.5 107t-127.5 42q-96 0 -155.5 -76t-59.5 -198q0 -123 59.5 -198.5t155.5 -75.5q74 0 125 39.5t60 100.5zM411 1439h978
q102 0 170.5 -68t68.5 -168v-986q0 -100 -68.5 -167.5t-170.5 -67.5h-978q-101 0 -170 67.5t-69 167.5v986q0 100 69 168t170 68zM1527 1202q0 62 -41.5 103t-105.5 41h-960q-63 0 -105 -40.5t-42 -103.5v-983q0 -63 42 -103.5t105 -40.5h960q64 0 105.5 40.5t41.5 103.5
v983z" />
    <glyph glyph-name="uni1F133" unicode="D&#x20de;" 
d="M651 1062h238q154 0 235 -88t81 -250q0 -165 -81 -253.5t-235 -88.5h-238v680zM753 980v-515h123q222 0 222 257q0 126 -56.5 192t-165.5 66h-123zM411 1439h978q102 0 170.5 -68t68.5 -168v-986q0 -100 -68.5 -167.5t-170.5 -67.5h-978q-101 0 -170 67.5t-69 167.5v986
q0 100 69 168t170 68zM1527 1202q0 62 -41.5 103t-105.5 41h-960q-63 0 -105 -40.5t-42 -103.5v-983q0 -63 42 -103.5t105 -40.5h960q64 0 105.5 40.5t41.5 103.5v983z" />
    <glyph glyph-name="uni1F134" unicode="E&#x20de;" 
d="M1127 461v-83h-444v688h444v-82h-343v-216h324v-80h-324v-227h343zM411 1439h978q102 0 170.5 -68t68.5 -168v-986q0 -100 -68.5 -167.5t-170.5 -67.5h-978q-101 0 -170 67.5t-69 167.5v986q0 100 69 168t170 68zM1527 1202q0 62 -41.5 103t-105.5 41h-960
q-63 0 -105 -40.5t-42 -103.5v-983q0 -63 42 -103.5t105 -40.5h960q64 0 105.5 40.5t41.5 103.5v983z" />
    <glyph glyph-name="uni1F135" unicode="F&#x20de;" 
d="M813 378h-103v688h439v-83h-336v-229h308v-82h-308v-294zM411 1439h978q102 0 170.5 -68t68.5 -168v-986q0 -100 -68.5 -167.5t-170.5 -67.5h-978q-101 0 -170 67.5t-69 167.5v986q0 100 69 168t170 68zM1527 1202q0 62 -41.5 103t-105.5 41h-960q-63 0 -105 -40.5
t-42 -103.5v-983q0 -63 42 -103.5t105 -40.5h960q64 0 105.5 40.5t41.5 103.5v983z" />
    <glyph glyph-name="uni1F136" unicode="G&#x20de;" 
d="M1091 608v51h-183v77h280v-107q0 -120 -75 -192.5t-210 -72.5q-142 0 -230 99t-88 259t88 259t230 99q117 0 196.5 -62t92.5 -161h-102q-10 61 -61.5 100t-124.5 39q-97 0 -156.5 -75.5t-59.5 -198.5t59.5 -198.5t156.5 -75.5q88 0 137.5 43t49.5 117zM411 1439h978
q102 0 170.5 -68t68.5 -168v-986q0 -100 -68.5 -167.5t-170.5 -67.5h-978q-101 0 -170 67.5t-69 167.5v986q0 100 69 168t170 68zM1527 1202q0 62 -41.5 103t-105.5 41h-960q-63 0 -105 -40.5t-42 -103.5v-983q0 -63 42 -103.5t105 -40.5h960q64 0 105.5 40.5t41.5 103.5
v983z" />
    <glyph glyph-name="uni1F137" unicode="H&#x20de;" 
d="M1180 378h-102v313h-355v-313h-102v688h102v-292h355v292h102v-688zM411 1439h978q102 0 170.5 -68t68.5 -168v-986q0 -100 -68.5 -167.5t-170.5 -67.5h-978q-101 0 -170 67.5t-69 167.5v986q0 100 69 168t170 68zM1527 1202q0 62 -41.5 103t-105.5 41h-960
q-63 0 -105 -40.5t-42 -103.5v-983q0 -63 42 -103.5t105 -40.5h960q64 0 105.5 40.5t41.5 103.5v983z" />
    <glyph glyph-name="uni1F138" unicode="I&#x20de;" 
d="M952 378h-104v688h104v-688zM411 1439h978q102 0 170.5 -68t68.5 -168v-986q0 -100 -68.5 -167.5t-170.5 -67.5h-978q-101 0 -170 67.5t-69 167.5v986q0 100 69 168t170 68zM1527 1202q0 62 -41.5 103t-105.5 41h-960q-63 0 -105 -40.5t-42 -103.5v-983q0 -63 42 -103.5
t105 -40.5h960q64 0 105.5 40.5t41.5 103.5v983z" />
    <glyph glyph-name="uni1F139" unicode="J&#x20de;" 
d="M651 557h99q1 -46 34 -75t83 -29q57 0 87.5 34t30.5 94v485h102v-482q0 -103 -59 -161t-161 -58q-99 0 -157.5 54.5t-58.5 137.5zM411 1439h978q102 0 170.5 -68t68.5 -168v-986q0 -100 -68.5 -167.5t-170.5 -67.5h-978q-101 0 -170 67.5t-69 167.5v986q0 100 69 168
t170 68zM1527 1202q0 62 -41.5 103t-105.5 41h-960q-63 0 -105 -40.5t-42 -103.5v-983q0 -63 42 -103.5t105 -40.5h960q64 0 105.5 40.5t41.5 103.5v983z" />
    <glyph glyph-name="uni1F13A" unicode="K&#x20de;" 
d="M1190 1066l-270 -294l285 -394h-127l-234 326l-87 -91v-235h-102v688h102v-332h5l310 332h118zM411 1439h978q102 0 170.5 -68t68.5 -168v-986q0 -100 -68.5 -167.5t-170.5 -67.5h-978q-101 0 -170 67.5t-69 167.5v986q0 100 69 168t170 68zM1527 1202q0 62 -41.5 103
t-105.5 41h-960q-63 0 -105 -40.5t-42 -103.5v-983q0 -63 42 -103.5t105 -40.5h960q64 0 105.5 40.5t41.5 103.5v983z" />
    <glyph glyph-name="uni1F13B" unicode="L&#x20de;" 
d="M1163 463v-85h-433v688h103v-603h330zM411 1439h978q102 0 170.5 -68t68.5 -168v-986q0 -100 -68.5 -167.5t-170.5 -67.5h-978q-101 0 -170 67.5t-69 167.5v986q0 100 69 168t170 68zM1527 1202q0 62 -41.5 103t-105.5 41h-960q-63 0 -105 -40.5t-42 -103.5v-983
q0 -63 42 -103.5t105 -40.5h960q64 0 105.5 40.5t41.5 103.5v983z" />
    <glyph glyph-name="uni1F13C" unicode="M&#x20de;" 
d="M654 378h-92v688h110l227 -564h4l227 564h108v-688h-92v521h-5l-202 -507h-77l-202 507h-6v-521zM411 1439h978q102 0 170.5 -68t68.5 -168v-986q0 -100 -68.5 -167.5t-170.5 -67.5h-978q-101 0 -170 67.5t-69 167.5v986q0 100 69 168t170 68zM1527 1202q0 62 -41.5 103
t-105.5 41h-960q-63 0 -105 -40.5t-42 -103.5v-983q0 -63 42 -103.5t105 -40.5h960q64 0 105.5 40.5t41.5 103.5v983z" />
    <glyph glyph-name="uni1F13D" unicode="N&#x20de;" 
d="M721 378h-98v688h95l356 -527h5v527h98v-688h-95l-356 529h-5v-529zM411 1439h978q102 0 170.5 -68t68.5 -168v-986q0 -100 -68.5 -167.5t-170.5 -67.5h-978q-101 0 -170 67.5t-69 167.5v986q0 100 69 168t170 68zM1527 1202q0 62 -41.5 103t-105.5 41h-960
q-63 0 -105 -40.5t-42 -103.5v-983q0 -63 42 -103.5t105 -40.5h960q64 0 105.5 40.5t41.5 103.5v983z" />
    <glyph glyph-name="uni1F13E" unicode="O&#x20de;" 
d="M900 448q96 0 157 74t61 200t-61 200t-157 74t-157 -74t-61 -200t61 -200t157 -74zM900 364q-140 0 -230.5 97t-90.5 261t90.5 261t230.5 97t230.5 -97t90.5 -261t-90.5 -261t-230.5 -97zM411 1439h978q102 0 170.5 -68t68.5 -168v-986q0 -100 -68.5 -167.5t-170.5 -67.5
h-978q-101 0 -170 67.5t-69 167.5v986q0 100 69 168t170 68zM1527 1202q0 62 -41.5 103t-105.5 41h-960q-63 0 -105 -40.5t-42 -103.5v-983q0 -63 42 -103.5t105 -40.5h960q64 0 105.5 40.5t41.5 103.5v983z" />
    <glyph glyph-name="uni1F13F" unicode="P&#x20de;" 
d="M956 1066q106 0 169 -61.5t63 -157.5q0 -97 -63 -158t-169 -61h-165v-250h-102v688h267zM1083 847q0 64 -38 101t-103 37h-151v-276h151q65 0 103 37t38 101zM411 1439h978q102 0 170.5 -68t68.5 -168v-986q0 -100 -68.5 -167.5t-170.5 -67.5h-978q-101 0 -170 67.5
t-69 167.5v986q0 100 69 168t170 68zM1527 1202q0 62 -41.5 103t-105.5 41h-960q-63 0 -105 -40.5t-42 -103.5v-983q0 -63 42 -103.5t105 -40.5h960q64 0 105.5 40.5t41.5 103.5v983z" />
    <glyph glyph-name="uni1F140" unicode="Q&#x20de;" 
d="M1185 303h-102l-61 84q-57 -23 -122 -23q-140 0 -230.5 97t-90.5 261t90.5 261t230.5 97t230.5 -97t90.5 -261q0 -196 -127 -295zM900 448q38 0 68 12l-88 122h101l57 -78q80 75 80 218q0 126 -61 200t-157 74t-157 -74t-61 -200t61 -200t157 -74zM411 1439h978
q102 0 170.5 -68t68.5 -168v-986q0 -100 -68.5 -167.5t-170.5 -67.5h-978q-101 0 -170 67.5t-69 167.5v986q0 100 69 168t170 68zM1527 1202q0 62 -41.5 103t-105.5 41h-960q-63 0 -105 -40.5t-42 -103.5v-983q0 -63 42 -103.5t105 -40.5h960q64 0 105.5 40.5t41.5 103.5
v983z" />
    <glyph glyph-name="uni1F141" unicode="R&#x20de;" 
d="M929 1066q109 0 173 -57.5t64 -152.5q0 -72 -40 -123.5t-102 -70.5l153 -284h-115l-140 269h-159v-269h-100v688h266zM763 725h151q68 0 107 34t39 94q0 62 -39 97.5t-104 35.5h-154v-261zM411 1439h978q102 0 170.5 -68t68.5 -168v-986q0 -100 -68.5 -167.5
t-170.5 -67.5h-978q-101 0 -170 67.5t-69 167.5v986q0 100 69 168t170 68zM1527 1202q0 62 -41.5 103t-105.5 41h-960q-63 0 -105 -40.5t-42 -103.5v-983q0 -63 42 -103.5t105 -40.5h960q64 0 105.5 40.5t41.5 103.5v983z" />
    <glyph glyph-name="uni1F142" unicode="S&#x20de;" 
d="M627 567h101q5 -53 54.5 -87.5t120.5 -34.5t117.5 33.5t46.5 84.5q0 78 -130 110l-115 26q-175 43 -175 182q0 89 71.5 144.5t184.5 55.5t183.5 -54t71.5 -142h-98q-5 50 -49.5 83t-108.5 33t-108 -33t-44 -82q0 -35 30 -61.5t83 -38.5l114 -26q101 -24 146.5 -68.5
t45.5 -119.5q0 -95 -74.5 -151.5t-199.5 -56.5q-119 0 -192 55.5t-76 147.5zM411 1439h978q102 0 170.5 -68t68.5 -168v-986q0 -100 -68.5 -167.5t-170.5 -67.5h-978q-101 0 -170 67.5t-69 167.5v986q0 100 69 168t170 68zM1527 1202q0 62 -41.5 103t-105.5 41h-960
q-63 0 -105 -40.5t-42 -103.5v-983q0 -63 42 -103.5t105 -40.5h960q64 0 105.5 40.5t41.5 103.5v983z" />
    <glyph glyph-name="uni1F143" unicode="T&#x20de;" 
d="M952 372h-103v604h-219v84h541v-84h-219v-604zM411 1439h978q102 0 170.5 -68t68.5 -168v-986q0 -100 -68.5 -167.5t-170.5 -67.5h-978q-101 0 -170 67.5t-69 167.5v986q0 100 69 168t170 68zM1527 1202q0 62 -41.5 103t-105.5 41h-960q-63 0 -105 -40.5t-42 -103.5v-983
q0 -63 42 -103.5t105 -40.5h960q64 0 105.5 40.5t41.5 103.5v983z" />
    <glyph glyph-name="uni1F144" unicode="U&#x20de;" 
d="M900 442q79 0 128 46t49 125v445h102v-453q0 -112 -77 -180.5t-202 -68.5t-202 68.5t-77 180.5v453h102v-445q0 -79 49 -125t128 -46zM411 1439h978q102 0 170.5 -68t68.5 -168v-986q0 -100 -68.5 -167.5t-170.5 -67.5h-978q-101 0 -170 67.5t-69 167.5v986q0 100 69 168
t170 68zM1527 1202q0 62 -41.5 103t-105.5 41h-960q-63 0 -105 -40.5t-42 -103.5v-983q0 -63 42 -103.5t105 -40.5h960q64 0 105.5 40.5t41.5 103.5v983z" />
    <glyph glyph-name="uni1F145" unicode="V&#x20de;" 
d="M837 369l-253 689h118l195 -580h6l195 580h118l-253 -689h-126zM411 1439h978q102 0 170.5 -68t68.5 -168v-986q0 -100 -68.5 -167.5t-170.5 -67.5h-978q-101 0 -170 67.5t-69 167.5v986q0 100 69 168t170 68zM1527 1202q0 62 -41.5 103t-105.5 41h-960q-63 0 -105 -40.5
t-42 -103.5v-983q0 -63 42 -103.5t105 -40.5h960q64 0 105.5 40.5t41.5 103.5v983z" />
    <glyph glyph-name="uni1F146" unicode="W&#x20de;" 
d="M900 908l-148 -539h-100l-188 689h112l129 -554h6l145 554h93l145 -554h5l129 554h112l-187 -689h-101l-148 539h-4zM411 1439h978q102 0 170.5 -68t68.5 -168v-986q0 -100 -68.5 -167.5t-170.5 -67.5h-978q-101 0 -170 67.5t-69 167.5v986q0 100 69 168t170 68z
M1527 1202q0 62 -41.5 103t-105.5 41h-960q-63 0 -105 -40.5t-42 -103.5v-983q0 -63 42 -103.5t105 -40.5h960q64 0 105.5 40.5t41.5 103.5v983z" />
    <glyph glyph-name="uni1F147" unicode="X&#x20de;" 
d="M1187 1070l-231 -345l227 -343h-119l-173 268h-5l-174 -268h-114l228 345l-226 343h122l171 -271h6l171 271h117zM411 1439h978q102 0 170.5 -68t68.5 -168v-986q0 -100 -68.5 -167.5t-170.5 -67.5h-978q-101 0 -170 67.5t-69 167.5v986q0 100 69 168t170 68zM1527 1202
q0 62 -41.5 103t-105.5 41h-960q-63 0 -105 -40.5t-42 -103.5v-983q0 -63 42 -103.5t105 -40.5h960q64 0 105.5 40.5t41.5 103.5v983z" />
    <glyph glyph-name="uni1F148" unicode="Y&#x20de;" 
d="M952 382h-103v281l-251 407h115l186 -308h4l186 308h113l-250 -405v-283zM411 1439h978q102 0 170.5 -68t68.5 -168v-986q0 -100 -68.5 -167.5t-170.5 -67.5h-978q-101 0 -170 67.5t-69 167.5v986q0 100 69 168t170 68zM1527 1202q0 62 -41.5 103t-105.5 41h-960
q-63 0 -105 -40.5t-42 -103.5v-983q0 -63 42 -103.5t105 -40.5h960q64 0 105.5 40.5t41.5 103.5v983z" />
    <glyph glyph-name="uni1F149" unicode="Z&#x20de;" 
d="M637 382v70l388 529v6h-376v83h499v-70l-385 -529v-6h394v-83h-520zM411 1439h978q102 0 170.5 -68t68.5 -168v-986q0 -100 -68.5 -167.5t-170.5 -67.5h-978q-101 0 -170 67.5t-69 167.5v986q0 100 69 168t170 68zM1527 1202q0 62 -41.5 103t-105.5 41h-960
q-63 0 -105 -40.5t-42 -103.5v-983q0 -63 42 -103.5t105 -40.5h960q64 0 105.5 40.5t41.5 103.5v983z" />
    <glyph glyph-name="uni1F150" unicode="A&#x20dd;&#x25cf;" 
d="M1015 675h-230l113 323h4zM683 368l73 213h288l74 -213h125l-273 752h-140l-273 -752h126zM900 -46q-153 0 -292.5 60t-240.5 161t-161 240.5t-60 292.5t60 292.5t161 240.5t240.5 161t292.5 60t292.5 -60t240.5 -161t161 -240.5t60 -292.5t-60 -292.5t-161 -240.5
t-240.5 -161t-292.5 -60z" />
    <glyph glyph-name="uni1F151" unicode="B&#x20dd;&#x25cf;" 
d="M642 351h303q125 0 198 57t73 155q0 75 -45 125t-121 61v1q57 15 90 59.5t33 106.5q0 84 -61.5 135.5t-165.5 51.5h-304v-752zM762 1008h161q61 0 95.5 -29.5t34.5 -81.5q0 -55 -41.5 -85t-120.5 -30h-129v226zM762 693h177q72 0 112.5 -33.5t40.5 -93.5
q0 -121 -192 -121h-138v248zM900 -46q-153 0 -292.5 60t-240.5 161t-161 240.5t-60 292.5t60 292.5t161 240.5t240.5 161t292.5 60t292.5 -60t240.5 -161t161 -240.5t60 -292.5t-60 -292.5t-161 -240.5t-240.5 -161t-292.5 -60z" />
    <glyph glyph-name="uni1F152" unicode="C&#x20dd;&#x25cf;" 
d="M1098 576q-11 -59 -65 -98t-129 -39q-99 0 -162 78t-63 205q0 126 63 204.5t162 78.5q75 0 130.5 -42.5t66.5 -104.5h122q-14 113 -102 183.5t-219 70.5q-155 0 -251.5 -108t-96.5 -282q0 -175 96.5 -282.5t251.5 -107.5q129 0 215.5 67t103.5 177h-123zM900 -46
q-153 0 -292.5 60t-240.5 161t-161 240.5t-60 292.5t60 292.5t161 240.5t240.5 161t292.5 60t292.5 -60t240.5 -161t161 -240.5t60 -292.5t-60 -292.5t-161 -240.5t-240.5 -161t-292.5 -60z" />
    <glyph glyph-name="uni1F153" unicode="D&#x20dd;&#x25cf;" 
d="M637 1096v-744h262q167 0 256.5 96t89.5 277q0 179 -89.5 275t-256.5 96h-262zM757 995h128q115 0 175.5 -68.5t60.5 -202.5q0 -272 -236 -272h-128v543zM900 -46q-153 0 -292.5 60t-240.5 161t-161 240.5t-60 292.5t60 292.5t161 240.5t240.5 161t292.5 60t292.5 -60
t240.5 -161t161 -240.5t60 -292.5t-60 -292.5t-161 -240.5t-240.5 -161t-292.5 -60z" />
    <glyph glyph-name="uni1F154" unicode="E&#x20dd;&#x25cf;" 
d="M1147 448h-369v233h348v96h-348v223h369v100h-490v-752h490v100zM900 -46q-153 0 -292.5 60t-240.5 161t-161 240.5t-60 292.5t60 292.5t161 240.5t240.5 161t292.5 60t292.5 -60t240.5 -161t161 -240.5t60 -292.5t-60 -292.5t-161 -240.5t-240.5 -161t-292.5 -60z" />
    <glyph glyph-name="uni1F155" unicode="F&#x20dd;&#x25cf;" 
d="M807 348v316h332v100h-332v235h361v101h-482v-752h121zM900 -46q-153 0 -292.5 60t-240.5 161t-161 240.5t-60 292.5t60 292.5t161 240.5t240.5 161t292.5 60t292.5 -60t240.5 -161t161 -240.5t60 -292.5t-60 -292.5t-161 -240.5t-240.5 -161t-292.5 -60z" />
    <glyph glyph-name="uni1F156" unicode="G&#x20dd;&#x25cf;" 
d="M1101 618q0 -76 -51.5 -125t-144.5 -49q-100 0 -162.5 75.5t-62.5 202.5t62.5 202.5t162.5 75.5q79 0 132 -36t62 -88h123q-14 103 -102 169t-216 66q-156 0 -253 -107.5t-97 -281.5t96.5 -282t252.5 -108q144 0 230 84.5t86 214.5v119h-304v-102h186v-30zM900 -46
q-153 0 -292.5 60t-240.5 161t-161 240.5t-60 292.5t60 292.5t161 240.5t240.5 161t292.5 60t292.5 -60t240.5 -161t161 -240.5t60 -292.5t-60 -292.5t-161 -240.5t-240.5 -161t-292.5 -60z" />
    <glyph glyph-name="uni1F157" unicode="H&#x20dd;&#x25cf;" 
d="M1208 348v752h-120v-315h-375v315h-121v-752h121v337h375v-337h120zM900 -46q-153 0 -292.5 60t-240.5 161t-161 240.5t-60 292.5t60 292.5t161 240.5t240.5 161t292.5 60t292.5 -60t240.5 -161t161 -240.5t60 -292.5t-60 -292.5t-161 -240.5t-240.5 -161t-292.5 -60z
" />
    <glyph glyph-name="uni1F158" unicode="I&#x20dd;&#x25cf;" 
d="M960 348v752h-120v-752h120zM900 -46q-153 0 -292.5 60t-240.5 161t-161 240.5t-60 292.5t60 292.5t161 240.5t240.5 161t292.5 60t292.5 -60t240.5 -161t161 -240.5t60 -292.5t-60 -292.5t-161 -240.5t-240.5 -161t-292.5 -60z" />
    <glyph glyph-name="uni1F159" unicode="J&#x20dd;&#x25cf;" 
d="M626 550q1 -97 66.5 -156.5t172.5 -59.5q114 0 178 63.5t64 177.5v525h-121v-528q0 -64 -31.5 -98t-90.5 -34q-52 0 -85 31t-35 79h-118zM900 -46q-153 0 -292.5 60t-240.5 161t-161 240.5t-60 292.5t60 292.5t161 240.5t240.5 161t292.5 60t292.5 -60t240.5 -161
t161 -240.5t60 -292.5t-60 -292.5t-161 -240.5t-240.5 -161t-292.5 -60z" />
    <glyph glyph-name="uni1F15A" unicode="K&#x20dd;&#x25cf;" 
d="M1217 1100h-139l-330 -356h-1v356h-121v-752h121v257l87 92l250 -349h148l-311 428zM901 -46q-153 0 -292.5 60t-240.5 161t-161 240.5t-60 292.5t60 292.5t161 240.5t240.5 161t292.5 60t292.5 -60t240.5 -161t161 -240.5t60 -292.5t-60 -292.5t-161 -240.5t-240.5 -161
t-292.5 -60z" />
    <glyph glyph-name="uni1F15B" unicode="L&#x20dd;&#x25cf;" 
d="M1175 451h-354v649h-121v-752h475v103zM900 -46q-153 0 -292.5 60t-240.5 161t-161 240.5t-60 292.5t60 292.5t161 240.5t240.5 161t292.5 60t292.5 -60t240.5 -161t161 -240.5t60 -292.5t-60 -292.5t-161 -240.5t-240.5 -161t-292.5 -60z" />
    <glyph glyph-name="uni1F15C" unicode="M&#x20dd;&#x25cf;" 
d="M640 348v563h1l213 -545h92l212 542h2v-560h111v752h-129l-242 -609h-1l-240 609h-129v-752h110zM900 -46q-153 0 -292.5 60t-240.5 161t-161 240.5t-60 292.5t60 292.5t161 240.5t240.5 161t292.5 60t292.5 -60t240.5 -161t161 -240.5t60 -292.5t-60 -292.5t-161 -240.5
t-240.5 -161t-292.5 -60z" />
    <glyph glyph-name="uni1F15D" unicode="N&#x20dd;&#x25cf;" 
d="M713 348v564h1l377 -564h113v752h-116v-565h-1l-379 565h-111v-752h116zM900 -46q-153 0 -292.5 60t-240.5 161t-161 240.5t-60 292.5t60 292.5t161 240.5t240.5 161t292.5 60t292.5 -60t240.5 -161t161 -240.5t60 -292.5t-60 -292.5t-161 -240.5t-240.5 -161t-292.5 -60
z" />
    <glyph glyph-name="uni1F15E" unicode="O&#x20dd;&#x25cf;" 
d="M900 435q-100 0 -164 77.5t-64 209.5t64 209.5t164 77.5t164 -77.5t64 -209.5t-64 -209.5t-164 -77.5zM900 332q153 0 251.5 105.5t98.5 284.5t-98.5 284.5t-251.5 105.5t-251.5 -105.5t-98.5 -284.5t98.5 -284.5t251.5 -105.5zM900 -46q-153 0 -292.5 60t-240.5 161
t-161 240.5t-60 292.5t60 292.5t161 240.5t240.5 161t292.5 60t292.5 -60t240.5 -161t161 -240.5t60 -292.5t-60 -292.5t-161 -240.5t-240.5 -161t-292.5 -60z" />
    <glyph glyph-name="uni1F15F" unicode="P&#x20dd;&#x25cf;" 
d="M955 1100h-293v-752h121v271h172q114 0 185 66t71 173t-71 174.5t-185 67.5zM1087 858q0 -66 -39.5 -104.5t-107.5 -38.5h-157v286h157q68 0 107.5 -38.5t39.5 -104.5zM900 -46q-153 0 -292.5 60t-240.5 161t-161 240.5t-60 292.5t60 292.5t161 240.5t240.5 161t292.5 60
t292.5 -60t240.5 -161t161 -240.5t60 -292.5t-60 -292.5t-161 -240.5t-240.5 -161t-292.5 -60z" />
    <glyph glyph-name="uni1F160" unicode="Q&#x20dd;&#x25cf;" 
d="M1220 268l-102 138q132 106 132 316q0 179 -98.5 284.5t-251.5 105.5t-251.5 -105.5t-98.5 -284.5t98.5 -284.5t251.5 -105.5q68 0 129 23l63 -87h128zM900 435q-100 0 -164 77.5t-64 209.5t64 209.5t164 77.5t164 -77.5t64 -209.5q0 -144 -79 -223l-57 79h-124l96 -133
q-29 -10 -64 -10zM900 -46q-153 0 -292.5 60t-240.5 161t-161 240.5t-60 292.5t60 292.5t161 240.5t240.5 161t292.5 60t292.5 -60t240.5 -161t161 -240.5t60 -292.5t-60 -292.5t-161 -240.5t-240.5 -161t-292.5 -60z" />
    <glyph glyph-name="uni1F161" unicode="R&#x20dd;&#x25cf;" 
d="M754 733v269h160q68 0 108.5 -37t40.5 -100q0 -61 -40.5 -96.5t-110.5 -35.5h-158zM927 1100h-292v-752h119v291h161l150 -291h137l-166 308q69 21 110 78.5t41 133.5q0 106 -70.5 169t-189.5 63zM900 -46q-153 0 -292.5 60t-240.5 161t-161 240.5t-60 292.5t60 292.5
t161 240.5t240.5 161t292.5 60t292.5 -60t240.5 -161t161 -240.5t60 -292.5t-60 -292.5t-161 -240.5t-240.5 -161t-292.5 -60z" />
    <glyph glyph-name="uni1F162" unicode="S&#x20dd;&#x25cf;" 
d="M600 559q3 -102 84.5 -164t210.5 -62q136 0 218 61.5t82 166.5q0 82 -51.5 132t-159.5 76l-123 28q-56 13 -86.5 40.5t-30.5 63.5q0 53 43.5 85.5t114.5 32.5q69 0 115.5 -34t50.5 -89h115q-2 95 -79.5 157.5t-200.5 62.5q-124 0 -202 -62t-78 -160q0 -76 49.5 -127
t142.5 -73l123 -30q72 -16 104 -43t32 -69q0 -55 -47.5 -88.5t-124.5 -33.5q-76 0 -127.5 36.5t-55.5 92.5h-119zM900 -46q-153 0 -292.5 60t-240.5 161t-161 240.5t-60 292.5t60 292.5t161 240.5t240.5 161t292.5 60t292.5 -60t240.5 -161t161 -240.5t60 -292.5t-60 -292.5
t-161 -240.5t-240.5 -161t-292.5 -60z" />
    <glyph glyph-name="uni1F163" unicode="T&#x20dd;&#x25cf;" 
d="M961 328v650h234v102h-590v-102h235v-650h121zM900 -46q-153 0 -292.5 60t-240.5 161t-161 240.5t-60 292.5t60 292.5t161 240.5t240.5 161t292.5 60t292.5 -60t240.5 -161t161 -240.5t60 -292.5t-60 -292.5t-161 -240.5t-240.5 -161t-292.5 -60z" />
    <glyph glyph-name="uni1F164" unicode="U&#x20dd;&#x25cf;" 
d="M900 415q-85 0 -135 47.5t-50 130.5v485h-121v-493q0 -124 84 -198.5t222 -74.5q137 0 221.5 75t84.5 198v493h-121v-485q0 -83 -50 -130.5t-135 -47.5zM900 -46q-153 0 -292.5 60t-240.5 161t-161 240.5t-60 292.5t60 292.5t161 240.5t240.5 161t292.5 60t292.5 -60
t240.5 -161t161 -240.5t60 -292.5t-60 -292.5t-161 -240.5t-240.5 -161t-292.5 -60z" />
    <glyph glyph-name="uni1F165" unicode="V&#x20dd;&#x25cf;" 
d="M971 326l275 751h-138l-206 -627h-4l-206 627h-138l276 -751h141zM900 -46q-153 0 -292.5 60t-240.5 161t-161 240.5t-60 292.5t60 292.5t161 240.5t240.5 161t292.5 60t292.5 -60t240.5 -161t161 -240.5t60 -292.5t-60 -292.5t-161 -240.5t-240.5 -161t-292.5 -60z" />
    <glyph glyph-name="uni1F166" unicode="W&#x20dd;&#x25cf;" 
d="M900 901h4l157 -575h119l204 751h-133l-133 -596h-4l-156 596h-112l-155 -596h-4l-134 596h-132l204 -751h118zM900 -46q-153 0 -292.5 60t-240.5 161t-161 240.5t-60 292.5t60 292.5t161 240.5t240.5 161t292.5 60t292.5 -60t240.5 -161t161 -240.5t60 -292.5
t-60 -292.5t-161 -240.5t-240.5 -161t-292.5 -60z" />
    <glyph glyph-name="uni1F167" unicode="X&#x20dd;&#x25cf;" 
d="M1221 1104h-139l-182 -294h-4l-185 294h-144l246 -375l-249 -377h136l187 290h3l186 -290h141l-249 374zM900 -46q-153 0 -292.5 60t-240.5 161t-161 240.5t-60 292.5t60 292.5t161 240.5t240.5 161t292.5 60t292.5 -60t240.5 -161t161 -240.5t60 -292.5t-60 -292.5
t-161 -240.5t-240.5 -161t-292.5 -60z" />
    <glyph glyph-name="uni1F168" unicode="Y&#x20dd;&#x25cf;" 
d="M840 349h120v306l275 445h-137l-196 -333h-4l-196 333h-137l275 -445v-306zM900 -46q-153 0 -292.5 60t-240.5 161t-161 240.5t-60 292.5t60 292.5t161 240.5t240.5 161t292.5 60t292.5 -60t240.5 -161t161 -240.5t60 -292.5t-60 -292.5t-161 -240.5t-240.5 -161
t-292.5 -60z" />
    <glyph glyph-name="uni1F169" unicode="Z&#x20dd;&#x25cf;" 
d="M612 352h570v101h-425v1l416 566v84h-548v-101h404v-2l-417 -565v-84zM900 -46q-153 0 -292.5 60t-240.5 161t-161 240.5t-60 292.5t60 292.5t161 240.5t240.5 161t292.5 60t292.5 -60t240.5 -161t161 -240.5t60 -292.5t-60 -292.5t-161 -240.5t-240.5 -161t-292.5 -60z
" />
    <glyph glyph-name="uni1F170" unicode="A&#x20de;&#x25a0;" 
d="M1015 661h-230l113 324h4zM683 354l73 213h288l74 -213h125l-273 752h-140l-273 -752h126zM411 1439h978q102 0 170.5 -68t68.5 -168v-986q0 -100 -68.5 -167.5t-170.5 -67.5h-978q-101 0 -170 67.5t-69 167.5v986q0 100 69 168t170 68z" />
    <glyph glyph-name="uni1F171" unicode="B&#x20de;&#x25a0;" 
d="M642 351h303q123 0 197 56.5t74 155.5q0 78 -46 126t-120 60v1q55 15 89 58.5t34 107.5q0 84 -62 135.5t-165 51.5h-304v-752zM762 1008h161q61 0 95.5 -30t34.5 -81q0 -54 -41 -84.5t-121 -30.5h-129v226zM762 693h177q72 0 112.5 -33.5t40.5 -93.5q0 -121 -192 -121
h-138v248zM411 1439h978q102 0 170.5 -68t68.5 -168v-986q0 -100 -68.5 -167.5t-170.5 -67.5h-978q-101 0 -170 67.5t-69 167.5v986q0 100 69 168t170 68z" />
    <glyph glyph-name="uni1F172" unicode="C&#x20de;&#x25a0;" 
d="M1098 576q-11 -59 -65 -98t-129 -39q-99 0 -162 78t-63 205q0 126 63 204.5t162 78.5q75 0 130.5 -42.5t66.5 -104.5h122q-14 113 -102 183.5t-219 70.5q-155 0 -251.5 -108t-96.5 -282q0 -175 96.5 -282.5t251.5 -107.5q129 0 215.5 67t103.5 177h-123zM411 1439h978
q102 0 170.5 -68t68.5 -168v-986q0 -100 -68.5 -167.5t-170.5 -67.5h-978q-101 0 -170 67.5t-69 167.5v986q0 100 69 168t170 68z" />
    <glyph glyph-name="uni1F173" unicode="D&#x20de;&#x25a0;" 
d="M621 1096v-744h263q168 0 256.5 97t88.5 276q0 177 -88.5 274t-256.5 97h-263zM741 995h128q116 0 176 -69t60 -202q0 -272 -236 -272h-128v543zM411 1439h978q102 0 170.5 -68t68.5 -168v-986q0 -100 -68.5 -167.5t-170.5 -67.5h-978q-101 0 -170 67.5t-69 167.5v986
q0 100 69 168t170 68z" />
    <glyph glyph-name="uni1F174" unicode="E&#x20de;&#x25a0;" 
d="M1147 448h-369v233h348v96h-348v223h369v100h-490v-752h490v100zM411 1439h978q102 0 170.5 -68t68.5 -168v-986q0 -100 -68.5 -167.5t-170.5 -67.5h-978q-101 0 -170 67.5t-69 167.5v986q0 100 69 168t170 68z" />
    <glyph glyph-name="uni1F175" unicode="F&#x20de;&#x25a0;" 
d="M807 348v316h332v100h-332v235h361v101h-482v-752h121zM411 1439h978q102 0 170.5 -68t68.5 -168v-986q0 -100 -68.5 -167.5t-170.5 -67.5h-978q-101 0 -170 67.5t-69 167.5v986q0 100 69 168t170 68z" />
    <glyph glyph-name="uni1F176" unicode="G&#x20de;&#x25a0;" 
d="M1101 618q0 -76 -51.5 -125t-144.5 -49q-100 0 -162.5 75.5t-62.5 202.5t62.5 202.5t162.5 75.5q79 0 132 -36t62 -88h123q-14 103 -102 169t-216 66q-156 0 -253 -107.5t-97 -281.5t96.5 -282t252.5 -108q144 0 230 84.5t86 214.5v119h-304v-102h186v-30zM411 1439h978
q102 0 170.5 -68t68.5 -168v-986q0 -100 -68.5 -167.5t-170.5 -67.5h-978q-101 0 -170 67.5t-69 167.5v986q0 100 69 168t170 68z" />
    <glyph glyph-name="uni1F177" unicode="H&#x20de;&#x25a0;" 
d="M1208 348v752h-120v-315h-375v315h-121v-752h121v337h375v-337h120zM411 1439h978q102 0 170.5 -68t68.5 -168v-986q0 -100 -68.5 -167.5t-170.5 -67.5h-978q-101 0 -170 67.5t-69 167.5v986q0 100 69 168t170 68z" />
    <glyph glyph-name="uni1F178" unicode="I&#x20de;&#x25a0;" 
d="M960 348v752h-120v-752h120zM411 1439h978q102 0 170.5 -68t68.5 -168v-986q0 -100 -68.5 -167.5t-170.5 -67.5h-978q-101 0 -170 67.5t-69 167.5v986q0 100 69 168t170 68z" />
    <glyph glyph-name="uni1F179" unicode="J&#x20de;&#x25a0;" 
d="M626 550q1 -94 65 -155t174 -61q113 0 177.5 63.5t64.5 177.5v525h-121v-528q0 -63 -31 -97.5t-91 -34.5q-52 0 -85 31t-35 79h-118zM411 1439h978q102 0 170.5 -68t68.5 -168v-986q0 -100 -68.5 -167.5t-170.5 -67.5h-978q-101 0 -170 67.5t-69 167.5v986q0 100 69 168
t170 68z" />
    <glyph glyph-name="uni1F17A" unicode="K&#x20de;&#x25a0;" 
d="M1217 1100h-139l-330 -356h-1v356h-121v-752h121v257l87 92l250 -349h148q-36 52 -157.5 217t-153.5 211zM411 1439h978q102 0 170.5 -68t68.5 -168v-986q0 -100 -68.5 -167.5t-170.5 -67.5h-978q-101 0 -170 67.5t-69 167.5v986q0 100 69 168t170 68z" />
    <glyph glyph-name="uni1F17B" unicode="L&#x20de;&#x25a0;" 
d="M1182 451h-355v649h-121v-752h476v103zM411 1439h978q102 0 170.5 -68t68.5 -168v-986q0 -100 -68.5 -167.5t-170.5 -67.5h-978q-101 0 -170 67.5t-69 167.5v986q0 100 69 168t170 68z" />
    <glyph glyph-name="uni1F17C" unicode="M&#x20de;&#x25a0;" 
d="M640 348v563h1l213 -545h92l212 542h2v-560h111v752h-129l-242 -609h-1l-240 609h-129v-752h110zM411 1439h978q102 0 170.5 -68t68.5 -168v-986q0 -100 -68.5 -167.5t-170.5 -67.5h-978q-101 0 -170 67.5t-69 167.5v986q0 100 69 168t170 68z" />
    <glyph glyph-name="uni1F17D" unicode="N&#x20de;&#x25a0;" 
d="M713 348v564h1l377 -564h113v752h-116v-565h-1l-379 565h-111v-752h116zM411 1439h978q102 0 170.5 -68t68.5 -168v-986q0 -100 -68.5 -167.5t-170.5 -67.5h-978q-101 0 -170 67.5t-69 167.5v986q0 100 69 168t170 68z" />
    <glyph glyph-name="uni1F17E" unicode="O&#x20de;&#x25a0;" 
d="M900 435q-100 0 -164 77.5t-64 209.5t64 209.5t164 77.5t164 -77.5t64 -209.5t-64 -209.5t-164 -77.5zM900 332q153 0 251.5 105.5t98.5 284.5t-98.5 284.5t-251.5 105.5t-251.5 -105.5t-98.5 -284.5t98.5 -284.5t251.5 -105.5zM411 1439h978q102 0 170.5 -68t68.5 -168
v-986q0 -100 -68.5 -167.5t-170.5 -67.5h-978q-101 0 -170 67.5t-69 167.5v986q0 100 69 168t170 68z" />
    <glyph glyph-name="uni1F17F" unicode="P&#x20de;&#x25a0;" 
d="M955 1100h-293v-752h121v271h172q116 0 186 67t70 172t-70 173.5t-186 68.5zM1087 858q0 -66 -39.5 -104.5t-107.5 -38.5h-157v286h157q68 0 107.5 -38t39.5 -105zM411 1439h978q102 0 170.5 -68t68.5 -168v-986q0 -100 -68.5 -167.5t-170.5 -67.5h-978q-101 0 -170 67.5
t-69 167.5v986q0 100 69 168t170 68z" />
    <glyph glyph-name="uni1F180" unicode="Q&#x20de;&#x25a0;" 
d="M1220 268l-102 138q132 106 132 316q0 179 -98.5 284.5t-251.5 105.5t-251.5 -105.5t-98.5 -284.5t98.5 -284.5t251.5 -105.5q68 0 129 23l63 -87h128zM900 435q-100 0 -164 77.5t-64 209.5t64 209.5t164 77.5t164 -77.5t64 -209.5q0 -144 -79 -223l-57 79h-124l96 -133
q-29 -10 -64 -10zM411 1439h978q102 0 170.5 -68t68.5 -168v-986q0 -100 -68.5 -167.5t-170.5 -67.5h-978q-101 0 -170 67.5t-69 167.5v986q0 100 69 168t170 68z" />
    <glyph glyph-name="uni1F181" unicode="R&#x20de;&#x25a0;" 
d="M754 733v269h160q68 0 108.5 -36.5t40.5 -100.5q0 -62 -40.5 -97t-110.5 -35h-158zM927 1100h-292v-752h119v291h161l150 -291h137l-166 308q67 20 109 76.5t42 135.5q0 106 -70 169t-190 63zM411 1439h978q102 0 170.5 -68t68.5 -168v-986q0 -100 -68.5 -167.5
t-170.5 -67.5h-978q-101 0 -170 67.5t-69 167.5v986q0 100 69 168t170 68z" />
    <glyph glyph-name="uni1F182" unicode="S&#x20de;&#x25a0;" 
d="M600 559q3 -102 84.5 -164t210.5 -62q136 0 218 61.5t82 166.5q0 82 -51.5 132t-159.5 76l-123 28q-56 13 -86.5 40.5t-30.5 63.5q0 53 43.5 85.5t114.5 32.5q69 0 115.5 -34t50.5 -89h115q-2 95 -79.5 157.5t-200.5 62.5q-124 0 -202 -62t-78 -160q0 -76 49.5 -127
t142.5 -73l123 -30q72 -16 104 -43t32 -69q0 -55 -47.5 -88.5t-124.5 -33.5q-76 0 -127.5 36.5t-55.5 92.5h-119zM411 1439h978q102 0 170.5 -68t68.5 -168v-986q0 -100 -68.5 -167.5t-170.5 -67.5h-978q-101 0 -170 67.5t-69 167.5v986q0 100 69 168t170 68z" />
    <glyph glyph-name="uni1F183" unicode="T&#x20de;&#x25a0;" 
d="M961 342v650h234v101h-590v-101h235v-650h121zM411 1439h978q102 0 170.5 -68t68.5 -168v-986q0 -100 -68.5 -167.5t-170.5 -67.5h-978q-101 0 -170 67.5t-69 167.5v986q0 100 69 168t170 68z" />
    <glyph glyph-name="uni1F184" unicode="U&#x20de;&#x25a0;" 
d="M900 429q-85 0 -135 47.5t-50 130.5v485h-121v-493q0 -124 84 -199t222 -75q137 0 221.5 75.5t84.5 198.5v493h-121v-485q0 -83 -50 -130.5t-135 -47.5zM411 1439h978q102 0 170.5 -68t68.5 -168v-986q0 -100 -68.5 -167.5t-170.5 -67.5h-978q-101 0 -170 67.5t-69 167.5
v986q0 100 69 168t170 68z" />
    <glyph glyph-name="uni1F185" unicode="V&#x20de;&#x25a0;" 
d="M971 340l275 751h-138l-206 -627h-4l-206 627h-138l276 -751h141zM411 1439h978q102 0 170.5 -68t68.5 -168v-986q0 -100 -68.5 -167.5t-170.5 -67.5h-978q-101 0 -170 67.5t-69 167.5v986q0 100 69 168t170 68z" />
    <glyph glyph-name="uni1F186" unicode="W&#x20de;&#x25a0;" 
d="M900 915h4l157 -575h119l204 751h-133l-133 -596h-4l-156 596h-112l-155 -596h-4l-134 596h-132l204 -751h118zM411 1439h978q102 0 170.5 -68t68.5 -168v-986q0 -100 -68.5 -167.5t-170.5 -67.5h-978q-101 0 -170 67.5t-69 167.5v986q0 100 69 168t170 68z" />
    <glyph glyph-name="uni1F187" unicode="X&#x20de;&#x25a0;" 
d="M1221 1104h-139l-182 -294h-4l-185 294h-144l246 -375l-249 -377h136l187 290h3l186 -290h141l-249 374zM411 1439h978q102 0 170.5 -68t68.5 -168v-986q0 -100 -68.5 -167.5t-170.5 -67.5h-978q-101 0 -170 67.5t-69 167.5v986q0 100 69 168t170 68z" />
    <glyph glyph-name="uni1F188" unicode="Y&#x20de;&#x25a0;" 
d="M840 352h120v306l275 446h-137l-196 -333h-4l-196 333h-137l275 -446v-306zM411 1439h978q102 0 170.5 -68t68.5 -168v-986q0 -100 -68.5 -167.5t-170.5 -67.5h-978q-101 0 -170 67.5t-69 167.5v986q0 100 69 168t170 68z" />
    <glyph glyph-name="uni1F189" unicode="Z&#x20de;&#x25a0;" 
d="M612 352h570v101h-425v1l416 566v84h-548v-101h404v-2l-417 -565v-84zM411 1439h978q102 0 170.5 -68t68.5 -168v-986q0 -100 -68.5 -167.5t-170.5 -67.5h-978q-101 0 -170 67.5t-69 167.5v986q0 100 69 168t170 68z" />
    <glyph glyph-name="plus.uc.whitecircle" unicode="&#x2b;&#x20dd;" 
d="M943 680v-223h-86v223h-216v83h216v214h86v-214h216v-83h-216zM900 54q133 0 253.5 52t206.5 139.5t136.5 208.5t50.5 254t-50.5 253.5t-136.5 208t-206.5 139.5t-253.5 52t-253.5 -52t-206.5 -139.5t-136.5 -208t-50.5 -253.5t50.5 -254t136.5 -208.5t206.5 -139.5
t253.5 -52zM900 -46q-153 0 -292.5 60t-240.5 161t-161 241t-60 292q0 153 60 292.5t161 241t240.5 161.5t292.5 60t292.5 -60t240.5 -161.5t161 -241t60 -292.5q0 -152 -60 -292t-161 -241t-240.5 -161t-292.5 -60z" />
    <glyph glyph-name="minus.uc.whitecircle" unicode="&#x2212;&#x20dd;" 
d="M1147 677h-494v84h494v-84zM900 54q133 0 253.5 52t206.5 139.5t136.5 208.5t50.5 254t-50.5 253.5t-136.5 208t-206.5 139.5t-253.5 52t-253.5 -52t-206.5 -139.5t-136.5 -208t-50.5 -253.5t50.5 -254t136.5 -208.5t206.5 -139.5t253.5 -52zM900 -46q-153 0 -292.5 60
t-240.5 161t-161 241t-60 292q0 153 60 292.5t161 241t240.5 161.5t292.5 60t292.5 -60t240.5 -161.5t161 -241t60 -292.5q0 -152 -60 -292t-161 -241t-240.5 -161t-292.5 -60z" />
    <glyph glyph-name="multiply.uc.whitecircle" unicode="&#xd7;&#x20dd;" 
d="M901 777l162 157l62 -59l-162 -157l162 -157l-62 -59l-161 157l-165 -160l-62 59l165 160l-162 157l61 59zM900 54q133 0 253.5 52t206.5 139.5t136.5 208.5t50.5 254t-50.5 253.5t-136.5 208t-206.5 139.5t-253.5 52t-253.5 -52t-206.5 -139.5t-136.5 -208t-50.5 -253.5
t50.5 -254t136.5 -208.5t206.5 -139.5t253.5 -52zM900 -46q-153 0 -292.5 60t-240.5 161t-161 241t-60 292q0 153 60 292.5t161 241t240.5 161.5t292.5 60t292.5 -60t240.5 -161.5t161 -241t60 -292.5q0 -152 -60 -292t-161 -241t-240.5 -161t-292.5 -60z" />
    <glyph glyph-name="divide.uc.whitecircle" unicode="&#xf7;&#x20dd;" 
d="M1147 681h-494v75h494v-75zM832 917q0 28 19.5 47t47.5 19q30 0 50.5 -19t20.5 -47t-20.5 -46t-50.5 -18q-28 0 -47.5 18.5t-19.5 45.5zM832 522q0 29 19.5 48t48.5 19t49.5 -19t20.5 -47t-20 -46t-50 -18q-29 0 -48.5 18t-19.5 45zM900 54q133 0 253.5 52t206.5 139.5
t136.5 208.5t50.5 254t-50.5 253.5t-136.5 208t-206.5 139.5t-253.5 52t-253.5 -52t-206.5 -139.5t-136.5 -208t-50.5 -253.5t50.5 -254t136.5 -208.5t206.5 -139.5t253.5 -52zM900 -46q-153 0 -292.5 60t-240.5 161t-161 241t-60 292q0 153 60 292.5t161 241t240.5 161.5
t292.5 60t292.5 -60t240.5 -161.5t161 -241t60 -292.5q0 -152 -60 -292t-161 -241t-240.5 -161t-292.5 -60z" />
    <glyph glyph-name="equal.uc.whitecircle" unicode="&#x3d;&#x20dd;" 
d="M1137 573h-474v78h474v-78zM1137 786h-474v78h474v-78zM900 54q133 0 253.5 52t206.5 139.5t136.5 208.5t50.5 254t-50.5 253.5t-136.5 208t-206.5 139.5t-253.5 52t-253.5 -52t-206.5 -139.5t-136.5 -208t-50.5 -253.5t50.5 -254t136.5 -208.5t206.5 -139.5t253.5 -52z
M900 -46q-153 0 -292.5 60t-240.5 161t-161 241t-60 292q0 153 60 292.5t161 241t240.5 161.5t292.5 60t292.5 -60t240.5 -161.5t161 -241t60 -292.5q0 -152 -60 -292t-161 -241t-240.5 -161t-292.5 -60z" />
    <glyph glyph-name="greater.uc.whitecircle" unicode="&#x3e;&#x20dd;" 
d="M1157 745v-72l-463 -253v101l350 188v5l-350 193v102zM900 54q133 0 253.5 52t206.5 139.5t136.5 208.5t50.5 254t-50.5 253.5t-136.5 208t-206.5 139.5t-253.5 52t-253.5 -52t-206.5 -139.5t-136.5 -208t-50.5 -253.5t50.5 -254t136.5 -208.5t206.5 -139.5t253.5 -52z
M900 -46q-153 0 -292.5 60t-240.5 161t-161 241t-60 292q0 153 60 292.5t161 241t240.5 161.5t292.5 60t292.5 -60t240.5 -161.5t161 -241t60 -292.5q0 -152 -60 -292t-161 -241t-240.5 -161t-292.5 -60z" />
    <glyph glyph-name="less.uc.whitecircle" unicode="&#x3c;&#x20dd;" 
d="M644 673v72l462 264v-102l-350 -193v-5l350 -188v-101zM900 54q133 0 253.5 52t206.5 139.5t136.5 208.5t50.5 254t-50.5 253.5t-136.5 208t-206.5 139.5t-253.5 52t-253.5 -52t-206.5 -139.5t-136.5 -208t-50.5 -253.5t50.5 -254t136.5 -208.5t206.5 -139.5t253.5 -52z
M900 -46q-153 0 -292.5 60t-240.5 161t-161 241t-60 292q0 153 60 292.5t161 241t240.5 161.5t292.5 60t292.5 -60t240.5 -161.5t161 -241t60 -292.5q0 -152 -60 -292t-161 -241t-240.5 -161t-292.5 -60z" />
    <glyph glyph-name="numbersign.whitecircle" unicode="&#x30;&#x20dd;" 
d="M1181 804h-115l-33 -156h109l-16 -73h-109l-41 -197h-81l42 197h-145l-41 -197h-82l42 197h-112l15 73h112l34 156h-107l15 74h108l39 189h81l-40 -189h145l40 189h80l-39 -189h114zM837 807l-35 -165h154l35 165h-154zM900 54q133 0 253.5 52t206.5 139.5t136.5 208.5
t50.5 254t-50.5 253.5t-136.5 208t-206.5 139.5t-253.5 52t-253.5 -52t-206.5 -139.5t-136.5 -208t-50.5 -253.5t50.5 -254t136.5 -208.5t206.5 -139.5t253.5 -52zM900 -46q-153 0 -292.5 60t-240.5 161t-161 241t-60 292q0 153 60 292.5t161 241t240.5 161.5t292.5 60
t292.5 -60t240.5 -161.5t161 -241t60 -292.5q0 -152 -60 -292t-161 -241t-240.5 -161t-292.5 -60z" />
    <glyph glyph-name="uni25BC.whitecircle" unicode="&#x25bc;&#x20dd;" 
d="M1192 916l-292 -494l-292 494h584zM900 54q133 0 253.5 52t206.5 139.5t136.5 208.5t50.5 254t-50.5 253.5t-136.5 208t-206.5 139.5t-253.5 52t-253.5 -52t-206.5 -139.5t-136.5 -208t-50.5 -253.5t50.5 -254t136.5 -208.5t206.5 -139.5t253.5 -52zM900 -46
q-153 0 -292.5 60t-240.5 161t-161 241t-60 292q0 153 60 292.5t161 241t240.5 161.5t292.5 60t292.5 -60t240.5 -161.5t161 -241t60 -292.5q0 -152 -60 -292t-161 -241t-240.5 -161t-292.5 -60z" />
    <glyph glyph-name="uni25B2.whitecircle" unicode="&#x25b2;&#x20dd;" 
d="M1192 517h-584l292 494zM900 54q133 0 253.5 52t206.5 139.5t136.5 208.5t50.5 254t-50.5 253.5t-136.5 208t-206.5 139.5t-253.5 52t-253.5 -52t-206.5 -139.5t-136.5 -208t-50.5 -253.5t50.5 -254t136.5 -208.5t206.5 -139.5t253.5 -52zM900 -46q-153 0 -292.5 60
t-240.5 161t-161 241t-60 292q0 153 60 292.5t161 241t240.5 161.5t292.5 60t292.5 -60t240.5 -161.5t161 -241t60 -292.5q0 -152 -60 -292t-161 -241t-240.5 -161t-292.5 -60z" />
    <glyph glyph-name="uni25C0.whitecircle" unicode="&#x25c0;&#x20dd;" 
d="M1094 424l-493 293l493 292v-585zM900 54q133 0 253.5 52t206.5 139.5t136.5 208.5t50.5 254t-50.5 253.5t-136.5 208t-206.5 139.5t-253.5 52t-253.5 -52t-206.5 -139.5t-136.5 -208t-50.5 -253.5t50.5 -254t136.5 -208.5t206.5 -139.5t253.5 -52zM900 -46
q-153 0 -292.5 60t-240.5 161t-161 241t-60 292q0 153 60 292.5t161 241t240.5 161.5t292.5 60t292.5 -60t240.5 -161.5t161 -241t60 -292.5q0 -152 -60 -292t-161 -241t-240.5 -161t-292.5 -60z" />
    <glyph glyph-name="uni25B6.whitecircle" unicode="&#x25b6;&#x20dd;" 
d="M706 424v585l494 -292zM900 54q133 0 253.5 52t206.5 139.5t136.5 208.5t50.5 254t-50.5 253.5t-136.5 208t-206.5 139.5t-253.5 52t-253.5 -52t-206.5 -139.5t-136.5 -208t-50.5 -253.5t50.5 -254t136.5 -208.5t206.5 -139.5t253.5 -52zM900 -46q-153 0 -292.5 60
t-240.5 161t-161 241t-60 292q0 153 60 292.5t161 241t240.5 161.5t292.5 60t292.5 -60t240.5 -161.5t161 -241t60 -292.5q0 -152 -60 -292t-161 -241t-240.5 -161t-292.5 -60z" />
    <glyph glyph-name="question.whitecircle" unicode="&#x3f;&#x20dd;" 
d="M812 441q0 30 21.5 49t53.5 19q34 0 56 -19.5t22 -48.5q0 -28 -22 -47.5t-56 -19.5q-32 0 -53.5 19t-21.5 48zM837 596v36q-1 50 22.5 86.5t71.5 70.5q48 33 68 57t20 60q0 48 -34.5 74.5t-87.5 26.5q-57 0 -90 -33.5t-34 -83.5h-95q-1 95 64 145t160 50
q94 0 156.5 -46.5t62.5 -127.5q0 -55 -26.5 -91t-79.5 -74q-51 -36 -68 -58t-17 -61v-31h-93zM900 54q133 0 253.5 52t206.5 139.5t136.5 208.5t50.5 254t-50.5 253.5t-136.5 208t-206.5 139.5t-253.5 52t-253.5 -52t-206.5 -139.5t-136.5 -208t-50.5 -253.5t50.5 -254
t136.5 -208.5t206.5 -139.5t253.5 -52zM900 -46q-153 0 -292.5 60t-240.5 161t-161 241t-60 292q0 153 60 292.5t161 241t240.5 161.5t292.5 60t292.5 -60t240.5 -161.5t161 -241t60 -292.5q0 -152 -60 -292t-161 -241t-240.5 -161t-292.5 -60z" />
    <glyph glyph-name="exclam.whitecircle" unicode="&#x21;&#x20dd;" 
d="M824 441q0 30 21.5 49.5t54.5 19.5t55 -20t22 -49q0 -28 -22 -47.5t-55 -19.5t-54.5 19t-21.5 48zM846 1070h109l-10 -455h-89zM900 54q133 0 253.5 52t206.5 139.5t136.5 208.5t50.5 254t-50.5 253.5t-136.5 208t-206.5 139.5t-253.5 52t-253.5 -52t-206.5 -139.5
t-136.5 -208t-50.5 -253.5t50.5 -254t136.5 -208.5t206.5 -139.5t253.5 -52zM900 -46q-153 0 -292.5 60t-240.5 161t-161 241t-60 292q0 153 60 292.5t161 241t240.5 161.5t292.5 60t292.5 -60t240.5 -161.5t161 -241t60 -292.5q0 -152 -60 -292t-161 -241t-240.5 -161
t-292.5 -60z" />
    <glyph glyph-name="uni2717.whitecircle" unicode="&#x2717;&#x20dd;" 
d="M903 782l266 266l66 -66l-265 -266l265 -266l-66 -67l-266 266l-266 -266l-67 67l265 266l-266 267l66 66zM900 54q133 0 253.5 52t206.5 139.5t136.5 208.5t50.5 254t-50.5 253.5t-136.5 208t-206.5 139.5t-253.5 52t-253.5 -52t-206.5 -139.5t-136.5 -208t-50.5 -253.5
t50.5 -254t136.5 -208.5t206.5 -139.5t253.5 -52zM900 -46q-153 0 -292.5 60t-240.5 161t-161 241t-60 292q0 153 60 292.5t161 241t240.5 161.5t292.5 60t292.5 -60t240.5 -161.5t161 -241t60 -292.5q0 -152 -60 -292t-161 -241t-240.5 -161t-292.5 -60z" />
    <glyph glyph-name="uni2713.whitecircle" unicode="&#x2713;&#x20dd;" 
d="M1318 952l-541 -540l-283 283l70 70l213 -214l470 472zM900 54q133 0 253.5 52t206.5 139.5t136.5 208.5t50.5 254t-50.5 253.5t-136.5 208t-206.5 139.5t-253.5 52t-253.5 -52t-206.5 -139.5t-136.5 -208t-50.5 -253.5t50.5 -254t136.5 -208.5t206.5 -139.5t253.5 -52z
M900 -46q-153 0 -292.5 60t-240.5 161t-161 241t-60 292q0 153 60 292.5t161 241t240.5 161.5t292.5 60t292.5 -60t240.5 -161.5t161 -241t60 -292.5q0 -152 -60 -292t-161 -241t-240.5 -161t-292.5 -60z" />
    <glyph glyph-name="zero.whitesquare" unicode="&#x30;&#x20de;" 
d="M900 452q73 0 117 73t44 197q0 125 -44 197.5t-117 72.5t-117 -72.5t-44 -197.5q0 -124 44 -197t117 -73zM900 365q-116 0 -187.5 96t-71.5 261q0 166 71.5 262t187.5 96t187.5 -96t71.5 -262q0 -165 -71.5 -261t-187.5 -96zM411 1439h978q102 0 170.5 -68t68.5 -168
v-986q0 -100 -68.5 -167.5t-170.5 -67.5h-978q-101 0 -170 67.5t-69 167.5v986q0 100 69 168t170 68zM1527 1202q0 62 -41.5 103t-105.5 41h-960q-63 0 -105 -40.5t-42 -103.5v-983q0 -63 42 -103.5t105 -40.5h960q64 0 105.5 40.5t41.5 103.5v983z" />
    <glyph glyph-name="one.whitesquare" unicode="&#x31;&#x20de;" 
d="M990 382h-102v589h-5l-170 -114v95l175 118h102v-688zM411 1439h978q102 0 170.5 -68t68.5 -168v-986q0 -100 -68.5 -167.5t-170.5 -67.5h-978q-101 0 -170 67.5t-69 167.5v986q0 100 69 168t170 68zM1527 1202q0 62 -41.5 103t-105.5 41h-960q-63 0 -105 -40.5
t-42 -103.5v-983q0 -63 42 -103.5t105 -40.5h960q64 0 105.5 40.5t41.5 103.5v983z" />
    <glyph glyph-name="two.whitesquare" unicode="&#x32;&#x20de;" 
d="M765 876h-99v4q0 84 63.5 144t171.5 60q103 0 166 -53.5t63 -136.5q0 -39 -17.5 -77.5t-39 -65t-64.5 -72.5l-194 -209v-5h331v-83h-472v63l271 290q41 44 62 78.5t21 73.5q0 52 -36 84t-93 32q-60 0 -97 -35.5t-37 -87.5v-4zM411 1439h978q102 0 170.5 -68t68.5 -168
v-986q0 -100 -68.5 -167.5t-170.5 -67.5h-978q-101 0 -170 67.5t-69 167.5v986q0 100 69 168t170 68zM1527 1202q0 62 -41.5 103t-105.5 41h-960q-63 0 -105 -40.5t-42 -103.5v-983q0 -63 42 -103.5t105 -40.5h960q64 0 105.5 40.5t41.5 103.5v983z" />
    <glyph glyph-name="three.whitesquare" unicode="&#x33;&#x20de;" 
d="M822 698v79h78q56 0 93.5 33t37.5 83q-1 50 -38 81t-95 31q-55 0 -92.5 -29.5t-40.5 -70.5h-96q2 76 65 127t166 52q103 0 167 -50t66 -127q1 -65 -41.5 -109t-94.5 -53v-6q62 -6 110 -50.5t49 -117.5q1 -91 -73 -147t-185 -56q-107 0 -173.5 52t-71.5 130h96
q4 -43 46.5 -72.5t103.5 -29.5q69 0 112 35.5t43 91.5q-2 53 -43.5 88t-106.5 35h-82zM411 1439h978q102 0 170.5 -68t68.5 -168v-986q0 -100 -68.5 -167.5t-170.5 -67.5h-978q-101 0 -170 67.5t-69 167.5v986q0 100 69 168t170 68zM1527 1202q0 62 -41.5 103t-105.5 41
h-960q-63 0 -105 -40.5t-42 -103.5v-983q0 -63 42 -103.5t105 -40.5h960q64 0 105.5 40.5t41.5 103.5v983z" />
    <glyph glyph-name="four.whitesquare" unicode="&#x34;&#x20de;" 
d="M912 1070h151v-465h97v-82h-97v-141h-97v141h-350v85q27 47 69 114t73 114.5t84 127.5t70 106zM715 605h251v387h-6q-166 -242 -245 -383v-4zM411 1439h978q102 0 170.5 -68t68.5 -168v-986q0 -100 -68.5 -167.5t-170.5 -67.5h-978q-101 0 -170 67.5t-69 167.5v986
q0 100 69 168t170 68zM1527 1202q0 62 -41.5 103t-105.5 41h-960q-63 0 -105 -40.5t-42 -103.5v-983q0 -63 42 -103.5t105 -40.5h960q64 0 105.5 40.5t41.5 103.5v983z" />
    <glyph glyph-name="five.whitesquare" unicode="&#x35;&#x20de;" 
d="M659 549h96q9 -46 51 -73t97 -27q64 0 109.5 43t45.5 113q0 65 -44 106t-109 41q-91 0 -141 -76h-90l31 395h416v-82h-332l-19 -225h5q19 27 60 47t94 20q98 0 164 -61t66 -162q0 -107 -72.5 -173.5t-188.5 -66.5q-99 0 -166.5 52t-72.5 129zM411 1439h978
q102 0 170.5 -68t68.5 -168v-986q0 -100 -68.5 -167.5t-170.5 -67.5h-978q-101 0 -170 67.5t-69 167.5v986q0 100 69 168t170 68zM1527 1202q0 62 -41.5 103t-105.5 41h-960q-63 0 -105 -40.5t-42 -103.5v-983q0 -63 42 -103.5t105 -40.5h960q64 0 105.5 40.5t41.5 103.5
v983z" />
    <glyph glyph-name="six.whitesquare" unicode="&#x36;&#x20de;" 
d="M1151 606q0 -105 -70 -171.5t-181 -66.5t-181.5 67.5t-70.5 175.5q0 120 99 253q4 8 75 105t79 105h119q-20 -20 -191 -248q-12 -15 -30 -45l6 -1q50 47 129 47q94 0 155.5 -63t61.5 -158zM747 602q0 -64 43.5 -107t108.5 -43q66 0 109 42.5t43 107.5t-43 108t-109 43
q-65 0 -108.5 -43t-43.5 -108zM411 1439h978q102 0 170.5 -68t68.5 -168v-986q0 -100 -68.5 -167.5t-170.5 -67.5h-978q-101 0 -170 67.5t-69 167.5v986q0 100 69 168t170 68zM1527 1202q0 62 -41.5 103t-105.5 41h-960q-63 0 -105 -40.5t-42 -103.5v-983q0 -63 42 -103.5
t105 -40.5h960q64 0 105.5 40.5t41.5 103.5v983z" />
    <glyph glyph-name="seven.whitesquare" unicode="&#x37;&#x20de;" 
d="M670 1070h473v-84l-296 -604h-109l301 600v6h-369v82zM411 1439h978q102 0 170.5 -68t68.5 -168v-986q0 -100 -68.5 -167.5t-170.5 -67.5h-978q-101 0 -170 67.5t-69 167.5v986q0 100 69 168t170 68zM1527 1202q0 62 -41.5 103t-105.5 41h-960q-63 0 -105 -40.5
t-42 -103.5v-983q0 -63 42 -103.5t105 -40.5h960q64 0 105.5 40.5t41.5 103.5v983z" />
    <glyph glyph-name="eight.whitesquare" unicode="&#x38;&#x20de;" 
d="M901 444q71 0 116.5 37t45.5 95q0 57 -45.5 93.5t-116.5 36.5t-117.5 -37t-46.5 -93q0 -58 46.5 -95t117.5 -37zM901 778q59 0 97.5 32.5t38.5 83.5q0 50 -38 82t-98 32t-98.5 -32t-38.5 -82q0 -51 38.5 -83.5t98.5 -32.5zM899 368q-117 0 -190 56t-73 147q0 63 42 111
t108 61v5q-56 17 -88.5 58.5t-32.5 95.5q0 80 66.5 131t169.5 51t169.5 -51.5t66.5 -130.5q0 -54 -33.5 -96t-88.5 -58v-5q66 -13 108 -61t42 -111q0 -90 -74 -146.5t-192 -56.5zM411 1439h978q102 0 170.5 -68t68.5 -168v-986q0 -100 -68.5 -167.5t-170.5 -67.5h-978
q-101 0 -170 67.5t-69 167.5v986q0 100 69 168t170 68zM1527 1202q0 62 -41.5 103t-105.5 41h-960q-63 0 -105 -40.5t-42 -103.5v-983q0 -63 42 -103.5t105 -40.5h960q64 0 105.5 40.5t41.5 103.5v983z" />
    <glyph glyph-name="nine.whitesquare" unicode="&#x39;&#x20de;" 
d="M651 851q0 104 69.5 170.5t180.5 66.5q112 0 182 -67.5t70 -174.5q0 -119 -99 -254q-4 -7 -75 -104t-79 -106h-119q27 30 191 248l30 45l-6 2q-50 -48 -129 -48q-94 0 -155 63t-61 159zM1054 854q0 65 -43.5 108t-108.5 43q-66 0 -109 -43t-43 -108t43 -107.5t109 -42.5
q65 0 108.5 43t43.5 107zM411 1439h978q102 0 170.5 -68t68.5 -168v-986q0 -100 -68.5 -167.5t-170.5 -67.5h-978q-101 0 -170 67.5t-69 167.5v986q0 100 69 168t170 68zM1527 1202q0 62 -41.5 103t-105.5 41h-960q-63 0 -105 -40.5t-42 -103.5v-983q0 -63 42 -103.5
t105 -40.5h960q64 0 105.5 40.5t41.5 103.5v983z" />
    <glyph glyph-name="plus.uc.whitesquare" unicode="&#x2b;&#x20de;" 
d="M943 680v-223h-86v223h-216v83h216v214h86v-214h216v-83h-216zM411 1439h978q102 0 170.5 -68t68.5 -168v-986q0 -100 -68.5 -167.5t-170.5 -67.5h-978q-101 0 -170 67.5t-69 167.5v986q0 100 69 168t170 68zM1527 1202q0 62 -41.5 103t-105.5 41h-960q-63 0 -105 -40.5
t-42 -103.5v-983q0 -63 42 -103.5t105 -40.5h960q64 0 105.5 40.5t41.5 103.5v983z" />
    <glyph glyph-name="minus.uc.whitesquare" unicode="&#x2212;&#x20de;" 
d="M1147 677h-494v84h494v-84zM411 1439h978q102 0 170.5 -68t68.5 -168v-986q0 -100 -68.5 -167.5t-170.5 -67.5h-978q-101 0 -170 67.5t-69 167.5v986q0 100 69 168t170 68zM1527 1202q0 62 -41.5 103t-105.5 41h-960q-63 0 -105 -40.5t-42 -103.5v-983q0 -63 42 -103.5
t105 -40.5h960q64 0 105.5 40.5t41.5 103.5v983z" />
    <glyph glyph-name="multiply.uc.whitesquare" unicode="&#xd7;&#x20de;" 
d="M901 777l162 157l62 -59l-162 -157l162 -157l-62 -59l-161 157l-165 -160l-62 59l165 160l-162 157l61 59zM411 1439h978q102 0 170.5 -68t68.5 -168v-986q0 -100 -68.5 -167.5t-170.5 -67.5h-978q-101 0 -170 67.5t-69 167.5v986q0 100 69 168t170 68zM1527 1202
q0 62 -41.5 103t-105.5 41h-960q-63 0 -105 -40.5t-42 -103.5v-983q0 -63 42 -103.5t105 -40.5h960q64 0 105.5 40.5t41.5 103.5v983z" />
    <glyph glyph-name="divide.uc.whitesquare" unicode="&#xf7;&#x20de;" 
d="M1147 681h-494v75h494v-75zM832 917q0 28 19.5 47t47.5 19q30 0 50.5 -19t20.5 -47t-20.5 -46t-50.5 -18q-28 0 -47.5 18.5t-19.5 45.5zM832 522q0 29 19.5 48t48.5 19t49.5 -19t20.5 -47t-20 -46t-50 -18q-29 0 -48.5 18t-19.5 45zM411 1439h978q102 0 170.5 -68
t68.5 -168v-986q0 -100 -68.5 -167.5t-170.5 -67.5h-978q-101 0 -170 67.5t-69 167.5v986q0 100 69 168t170 68zM1527 1202q0 62 -41.5 103t-105.5 41h-960q-63 0 -105 -40.5t-42 -103.5v-983q0 -63 42 -103.5t105 -40.5h960q64 0 105.5 40.5t41.5 103.5v983z" />
    <glyph glyph-name="equal.uc.whitesquare" unicode="&#x3d;&#x20de;" 
d="M1137 573h-474v78h474v-78zM1137 786h-474v78h474v-78zM411 1439h978q102 0 170.5 -68t68.5 -168v-986q0 -100 -68.5 -167.5t-170.5 -67.5h-978q-101 0 -170 67.5t-69 167.5v986q0 100 69 168t170 68zM1527 1202q0 62 -41.5 103t-105.5 41h-960q-63 0 -105 -40.5
t-42 -103.5v-983q0 -63 42 -103.5t105 -40.5h960q64 0 105.5 40.5t41.5 103.5v983z" />
    <glyph glyph-name="greater.uc.whitesquare" unicode="&#x3e;&#x20de;" 
d="M1157 745v-72l-463 -253v101l350 188v5l-350 193v102zM411 1439h978q102 0 170.5 -68t68.5 -168v-986q0 -100 -68.5 -167.5t-170.5 -67.5h-978q-101 0 -170 67.5t-69 167.5v986q0 100 69 168t170 68zM1527 1202q0 62 -41.5 103t-105.5 41h-960q-63 0 -105 -40.5
t-42 -103.5v-983q0 -63 42 -103.5t105 -40.5h960q64 0 105.5 40.5t41.5 103.5v983z" />
    <glyph glyph-name="less.uc.whitesquare" unicode="&#x3c;&#x20de;" 
d="M644 673v72l462 264v-102l-350 -193v-5l350 -188v-101zM411 1439h978q102 0 170.5 -68t68.5 -168v-986q0 -100 -68.5 -167.5t-170.5 -67.5h-978q-101 0 -170 67.5t-69 167.5v986q0 100 69 168t170 68zM1527 1202q0 62 -41.5 103t-105.5 41h-960q-63 0 -105 -40.5
t-42 -103.5v-983q0 -63 42 -103.5t105 -40.5h960q64 0 105.5 40.5t41.5 103.5v983z" />
    <glyph glyph-name="numbersign.whitesquare" unicode="&#x23;&#x20de;" 
d="M1181 804h-115l-33 -156h109l-16 -73h-109l-41 -197h-81l42 197h-145l-41 -197h-82l42 197h-112l15 73h112l34 156h-107l15 74h108l39 189h81l-40 -189h145l40 189h80l-39 -189h114zM837 807l-35 -165h154l35 165h-154zM411 1439h978q102 0 170.5 -68t68.5 -168v-986
q0 -100 -68.5 -167.5t-170.5 -67.5h-978q-101 0 -170 67.5t-69 167.5v986q0 100 69 168t170 68zM1527 1202q0 62 -41.5 103t-105.5 41h-960q-63 0 -105 -40.5t-42 -103.5v-983q0 -63 42 -103.5t105 -40.5h960q64 0 105.5 40.5t41.5 103.5v983z" />
    <glyph glyph-name="uni25BC.whitesquare" unicode="&#x25bc;&#x20de;" 
d="M1193 916l-292 -494l-293 494h585zM411 1439h978q102 0 170.5 -68t68.5 -168v-986q0 -100 -68.5 -167.5t-170.5 -67.5h-978q-101 0 -170 67.5t-69 167.5v986q0 100 69 168t170 68zM1527 1202q0 62 -41.5 103t-105.5 41h-960q-63 0 -105 -40.5t-42 -103.5v-983
q0 -63 42 -103.5t105 -40.5h960q64 0 105.5 40.5t41.5 103.5v983z" />
    <glyph glyph-name="uni25B2.whitesquare" unicode="&#x25b2;&#x20de;" 
d="M1192 517h-584l292 494zM411 1439h978q102 0 170.5 -68t68.5 -168v-986q0 -100 -68.5 -167.5t-170.5 -67.5h-978q-101 0 -170 67.5t-69 167.5v986q0 100 69 168t170 68zM1527 1202q0 62 -41.5 103t-105.5 41h-960q-63 0 -105 -40.5t-42 -103.5v-983q0 -63 42 -103.5
t105 -40.5h960q64 0 105.5 40.5t41.5 103.5v983z" />
    <glyph glyph-name="uni25C0.whitesquare" unicode="&#x25c0;&#x20de;" 
d="M1094 424l-493 293l493 292v-585zM411 1439h978q102 0 170.5 -68t68.5 -168v-986q0 -100 -68.5 -167.5t-170.5 -67.5h-978q-101 0 -170 67.5t-69 167.5v986q0 100 69 168t170 68zM1527 1202q0 62 -41.5 103t-105.5 41h-960q-63 0 -105 -40.5t-42 -103.5v-983
q0 -63 42 -103.5t105 -40.5h960q64 0 105.5 40.5t41.5 103.5v983z" />
    <glyph glyph-name="uni25B6.whitesquare" unicode="&#x25b6;&#x20de;" 
d="M706 424v585l494 -292zM411 1439h978q102 0 170.5 -68t68.5 -168v-986q0 -100 -68.5 -167.5t-170.5 -67.5h-978q-101 0 -170 67.5t-69 167.5v986q0 100 69 168t170 68zM1527 1202q0 62 -41.5 103t-105.5 41h-960q-63 0 -105 -40.5t-42 -103.5v-983q0 -63 42 -103.5
t105 -40.5h960q64 0 105.5 40.5t41.5 103.5v983z" />
    <glyph glyph-name="question.whitesquare" unicode="&#x3f;&#x20de;" 
d="M812 441q0 30 21.5 49t53.5 19q34 0 56 -19.5t22 -48.5q0 -28 -22 -47.5t-56 -19.5q-32 0 -53.5 19t-21.5 48zM678 890q-1 95 64 145t160 50q94 0 156.5 -46.5t62.5 -127.5q0 -55 -26.5 -91t-79.5 -74q-51 -36 -68 -58t-17 -61v-31h-93v36q-1 50 22.5 86.5t71.5 70.5
q48 33 68 57t20 60q0 48 -34.5 74.5t-87.5 26.5q-57 0 -90 -33.5t-34 -83.5h-95zM411 1439h978q102 0 170.5 -68t68.5 -168v-986q0 -100 -68.5 -167.5t-170.5 -67.5h-978q-101 0 -170 67.5t-69 167.5v986q0 100 69 168t170 68zM1527 1202q0 62 -41.5 103t-105.5 41h-960
q-63 0 -105 -40.5t-42 -103.5v-983q0 -63 42 -103.5t105 -40.5h960q64 0 105.5 40.5t41.5 103.5v983z" />
    <glyph glyph-name="exclam.whitesquare" unicode="&#x21;&#x20de;" 
d="M824 441q0 30 21.5 49.5t54.5 19.5t55 -20t22 -49q0 -28 -22 -47.5t-55 -19.5t-54.5 19t-21.5 48zM846 1070h109l-10 -455h-89zM411 1439h978q102 0 170.5 -68t68.5 -168v-986q0 -100 -68.5 -167.5t-170.5 -67.5h-978q-101 0 -170 67.5t-69 167.5v986q0 100 69 168
t170 68zM1527 1202q0 62 -41.5 103t-105.5 41h-960q-63 0 -105 -40.5t-42 -103.5v-983q0 -63 42 -103.5t105 -40.5h960q64 0 105.5 40.5t41.5 103.5v983z" />
    <glyph glyph-name="uni2717.whitesquare" unicode="&#x2717;&#x20de;" 
d="M903 782l266 266l66 -66l-265 -266l265 -266l-66 -67l-266 266l-266 -266l-67 67l265 266l-266 267l66 66zM411 1439h978q102 0 170.5 -68t68.5 -168v-986q0 -100 -68.5 -167.5t-170.5 -67.5h-978q-101 0 -170 67.5t-69 167.5v986q0 100 69 168t170 68zM1527 1202
q0 62 -41.5 103t-105.5 41h-960q-63 0 -105 -40.5t-42 -103.5v-983q0 -63 42 -103.5t105 -40.5h960q64 0 105.5 40.5t41.5 103.5v983z" />
    <glyph glyph-name="uni2713.whitesquare" unicode="&#x2713;&#x20de;" 
d="M1318 952l-541 -540l-283 283l70 70l213 -214l470 472zM411 1439h978q102 0 170.5 -68t68.5 -168v-986q0 -100 -68.5 -167.5t-170.5 -67.5h-978q-101 0 -170 67.5t-69 167.5v986q0 100 69 168t170 68zM1527 1202q0 62 -41.5 103t-105.5 41h-960q-63 0 -105 -40.5
t-42 -103.5v-983q0 -63 42 -103.5t105 -40.5h960q64 0 105.5 40.5t41.5 103.5v983z" />
    <glyph glyph-name="plus.uc.blackcircle" unicode="&#x2b;&#x20dd;&#x25cf;" 
d="M953 674h232v98h-232v231h-106v-231h-232v-98h232v-241h106v241zM900 -46q-153 0 -292.5 60t-240.5 161t-161 240.5t-60 292.5t60 292.5t161 240.5t240.5 161t292.5 60t292.5 -60t240.5 -161t161 -240.5t60 -292.5t-60 -292.5t-161 -240.5t-240.5 -161t-292.5 -60z" />
    <glyph glyph-name="minus.uc.blackcircle" unicode="&#x2212;&#x20dd;&#x25cf;" 
d="M1171 669v101h-542v-101h542zM900 -46q-153 0 -292.5 60t-240.5 161t-161 240.5t-60 292.5t60 292.5t161 240.5t240.5 161t292.5 60t292.5 -60t240.5 -161t161 -240.5t60 -292.5t-60 -292.5t-161 -240.5t-240.5 -161t-292.5 -60z" />
    <glyph glyph-name="multiply.uc.blackcircle" unicode="&#xd7;&#x20dd;&#x25cf;" 
d="M898 787l-174 169l-75 -72l174 -169l-174 -168l75 -72l174 168l174 -168l74 72l-174 168l174 169l-74 72zM900 -46q-153 0 -292.5 60t-240.5 161t-161 240.5t-60 292.5t60 292.5t161 240.5t240.5 161t292.5 60t292.5 -60t240.5 -161t161 -240.5t60 -292.5t-60 -292.5
t-161 -240.5t-240.5 -161t-292.5 -60z" />
    <glyph glyph-name="divide.uc.blackcircle" unicode="&#xf7;&#x20dd;&#x25cf;" 
d="M820 934q0 -32 23 -53t56 -21q34 0 58 21t24 53q0 34 -23.5 56t-58.5 22q-33 0 -56 -22.5t-23 -55.5zM1171 673v91h-542v-91h542zM820 506q0 -32 23 -53t57 -21t57.5 21.5t23.5 53.5q0 33 -23.5 54.5t-57.5 21.5t-57 -22t-23 -55zM900 -46q-153 0 -292.5 60t-240.5 161
t-161 240.5t-60 292.5t60 292.5t161 240.5t240.5 161t292.5 60t292.5 -60t240.5 -161t161 -240.5t60 -292.5t-60 -292.5t-161 -240.5t-240.5 -161t-292.5 -60z" />
    <glyph glyph-name="equal.uc.blackcircle" unicode="&#x3d;&#x20dd;&#x25cf;" 
d="M1160 787v95h-519v-95h519zM1160 557v94h-519v-94h519zM900 -46q-153 0 -292.5 60t-240.5 161t-161 240.5t-60 292.5t60 292.5t161 240.5t240.5 161t292.5 60t292.5 -60t240.5 -161t161 -240.5t60 -292.5t-60 -292.5t-161 -240.5t-240.5 -161t-292.5 -60z" />
    <glyph glyph-name="greater.uc.blackcircle" unicode="&#x3e;&#x20dd;&#x25cf;" 
d="M1176 752l-507 288v-119l378 -209v-2l-378 -201v-119l507 277v85zM900 -46q-153 0 -292.5 60t-240.5 161t-161 240.5t-60 292.5t60 292.5t161 240.5t240.5 161t292.5 60t292.5 -60t240.5 -161t161 -240.5t60 -292.5t-60 -292.5t-161 -240.5t-240.5 -161t-292.5 -60z" />
    <glyph glyph-name="less.uc.blackcircle" unicode="&#x3c;&#x20dd;&#x25cf;" 
d="M619 667l507 -277v119l-378 201v2l378 209v119l-507 -288v-85zM900 -46q-153 0 -292.5 60t-240.5 161t-161 240.5t-60 292.5t60 292.5t161 240.5t240.5 161t292.5 60t292.5 -60t240.5 -161t161 -240.5t60 -292.5t-60 -292.5t-161 -240.5t-240.5 -161t-292.5 -60z" />
    <glyph glyph-name="numbersign.blackcircle" unicode="&#x23;&#x20dd;&#x25cf;" 
d="M836 809h157l-37 -169h-156zM1206 807l18 89h-122l43 203h-97l-43 -203h-146l43 203h-98l-42 -203h-117l-18 -89h115l-33 -158h-121l-18 -91h119l-44 -210h98l44 210h147l-45 -210h98l44 210h116l19 91h-116l33 158h123zM900 -46q-153 0 -292.5 60t-240.5 161t-161 240.5
t-60 292.5t60 292.5t161 240.5t240.5 161t292.5 60t292.5 -60t240.5 -161t161 -240.5t60 -292.5t-60 -292.5t-161 -240.5t-240.5 -161t-292.5 -60z" />
    <glyph glyph-name="uni25BC.blackcircle" unicode="&#x25bc;&#x20dd;&#x25cf;" 
d="M1219 944h-637l318 -540zM900 -46q-153 0 -292.5 60t-240.5 161t-161 240.5t-60 292.5t60 292.5t161 240.5t240.5 161t292.5 60t292.5 -60t240.5 -161t161 -240.5t60 -292.5t-60 -292.5t-161 -240.5t-240.5 -161t-292.5 -60z" />
    <glyph glyph-name="uni25B2.blackcircle" unicode="&#x25b2;&#x20dd;&#x25cf;" 
d="M1219 499l-319 540l-318 -540h637zM900 -46q-153 0 -292.5 60t-240.5 161t-161 240.5t-60 292.5t60 292.5t161 240.5t240.5 161t292.5 60t292.5 -60t240.5 -161t161 -240.5t60 -292.5t-60 -292.5t-161 -240.5t-240.5 -161t-292.5 -60z" />
    <glyph glyph-name="uni25C0.blackcircle" unicode="&#x25c0;&#x20dd;&#x25cf;" 
d="M1117 404v636l-539 -318zM900 -46q-153 0 -292.5 60t-240.5 161t-161 240.5t-60 292.5t60 292.5t161 240.5t240.5 161t292.5 60t292.5 -60t240.5 -161t161 -240.5t60 -292.5t-60 -292.5t-161 -240.5t-240.5 -161t-292.5 -60z" />
    <glyph glyph-name="uni25B6.blackcircle" unicode="&#x25b6;&#x20dd;&#x25cf;" 
d="M683 404l540 318l-540 318v-636zM900 -46q-153 0 -292.5 60t-240.5 161t-161 240.5t-60 292.5t60 292.5t161 240.5t240.5 161t292.5 60t292.5 -60t240.5 -161t161 -240.5t60 -292.5t-60 -292.5t-161 -240.5t-240.5 -161t-292.5 -60z" />
    <glyph glyph-name="question.blackcircle" unicode="&#x3f;&#x20dd;&#x25cf;" 
d="M796 418q0 -33 25 -55.5t62 -22.5q39 0 64.5 22.5t25.5 55.5q0 35 -25 57.5t-65 22.5q-37 0 -62 -22.5t-25 -57.5zM824 582h110v37q0 41 18 64.5t71 61.5q58 41 87.5 80.5t29.5 101.5q0 88 -69.5 140t-171.5 52q-103 0 -174.5 -55t-71.5 -161v-3h112q2 55 36 89t93 34
q54 0 90 -27t36 -75q0 -36 -21.5 -62t-71.5 -61q-54 -38 -80 -77.5t-23 -94.5v-44zM902 -46q-153 0 -292.5 60t-240.5 161t-161 240.5t-60 292.5t60 292.5t161 240.5t240.5 161t292.5 60t292.5 -60t240.5 -161t161 -240.5t60 -292.5t-60 -292.5t-161 -240.5t-240.5 -161
t-292.5 -60z" />
    <glyph glyph-name="exclam.blackcircle" unicode="&#x21;&#x20dd;&#x25cf;" 
d="M835 1102l12 -499h106l12 499h-130zM812 419q0 -33 25 -55.5t63 -22.5t63 22.5t25 55.5q0 34 -25 56.5t-63 22.5t-63 -22.5t-25 -56.5zM900 -46q-153 0 -292.5 60t-240.5 161t-161 240.5t-60 292.5t60 292.5t161 240.5t240.5 161t292.5 60t292.5 -60t240.5 -161
t161 -240.5t60 -292.5t-60 -292.5t-161 -240.5t-240.5 -161t-292.5 -60z" />
    <glyph glyph-name="uni2717.blackcircle" unicode="&#x2717;&#x20dd;&#x25cf;" 
d="M903 792l-289 289l-75 -74l289 -289l-288 -288l75 -75l288 287l288 -287l74 75l-288 288l288 287l-74 75zM900 -46q-153 0 -292.5 60t-240.5 161t-161 240.5t-60 292.5t60 292.5t161 240.5t240.5 161t292.5 60t292.5 -60t240.5 -161t161 -240.5t60 -292.5t-60 -292.5
t-161 -240.5t-240.5 -161t-292.5 -60z" />
    <glyph glyph-name="uni2713.blackcircle" unicode="&#x2713;&#x20dd;&#x25cf;" 
d="M766 386l588 588l-78 80l-511 -512l-228 230l-79 -78zM900 -46q-153 0 -292.5 60t-240.5 161t-161 240.5t-60 292.5t60 292.5t161 240.5t240.5 161t292.5 60t292.5 -60t240.5 -161t161 -240.5t60 -292.5t-60 -292.5t-161 -240.5t-240.5 -161t-292.5 -60z" />
    <glyph glyph-name="zero.blacksquare" unicode="&#x30;&#x20de;&#x25a0;" 
d="M897 432q-76 0 -120 77.5t-44 212.5q0 136 44 213t120 77q77 0 121 -77t44 -213q0 -135 -44 -212.5t-121 -77.5zM897 332q131 0 209 105.5t78 284.5t-78 285t-209 106q-130 0 -208.5 -106t-78.5 -285t78.5 -284.5t208.5 -105.5zM411 1439h978q102 0 170.5 -68t68.5 -168
v-986q0 -100 -68.5 -167.5t-170.5 -67.5h-978q-101 0 -170 67.5t-69 167.5v986q0 100 69 168t170 68z" />
    <glyph glyph-name="one.blacksquare" unicode="&#x31;&#x20de;&#x25a0;" 
d="M1000 351v751h-118l-190 -130v-114l186 127h2v-634h120zM411 1439h978q102 0 170.5 -68t68.5 -168v-986q0 -100 -68.5 -167.5t-170.5 -67.5h-978q-101 0 -170 67.5t-69 167.5v986q0 100 69 168t170 68z" />
    <glyph glyph-name="two.blacksquare" unicode="&#x32;&#x20de;&#x25a0;" 
d="M757 884v8q1 54 39 90.5t99 36.5q57 0 95.5 -33t38.5 -85q0 -43 -21.5 -79.5t-65.5 -82.5l-294 -313v-76h518v100h-354v1l216 230q63 69 92 117.5t29 109.5q0 91 -70.5 149.5t-181.5 58.5q-119 0 -187 -66t-70 -158v-8h117zM411 1439h978q102 0 170.5 -68t68.5 -168v-986
q0 -100 -68.5 -167.5t-170.5 -67.5h-978q-101 0 -170 67.5t-69 167.5v986q0 100 69 168t170 68z" />
    <glyph glyph-name="three.blacksquare" unicode="&#x33;&#x20de;&#x25a0;" 
d="M810 691h93q67 0 110 -36t44 -92q0 -58 -44.5 -94.5t-117.5 -36.5q-63 1 -107 32t-51 76h-112q5 -88 78 -146t191 -58q122 0 203.5 62t80.5 162q-1 79 -51.5 127.5t-115.5 56.5v1q55 12 99 60t43 118q-2 84 -72.5 139.5t-182.5 55.5q-114 -1 -182.5 -57.5t-73.5 -144.5
h115q5 45 42.5 75t95.5 30q61 0 99.5 -32t38.5 -82q0 -52 -38 -86t-97 -34h-88v-96zM411 1439h978q102 0 170.5 -68t68.5 -168v-986q0 -100 -68.5 -167.5t-170.5 -67.5h-978q-101 0 -170 67.5t-69 167.5v986q0 100 69 168t170 68z" />
    <glyph glyph-name="four.blacksquare" unicode="&#x34;&#x20de;&#x25a0;" 
d="M907 1102q-252 -384 -319 -501v-97h375v-153h116v153h104v98h-104v500h-172zM704 604q88 150 258 401h1v-403h-259v2zM411 1439h978q102 0 170.5 -68t68.5 -168v-986q0 -100 -68.5 -167.5t-170.5 -67.5h-978q-101 0 -170 67.5t-69 167.5v986q0 100 69 168t170 68z" />
    <glyph glyph-name="five.blacksquare" unicode="&#x35;&#x20de;&#x25a0;" 
d="M632 539q5 -87 79 -144.5t185 -57.5q126 0 205 72.5t79 190.5q0 110 -72.5 177t-179.5 67q-56 0 -99 -20.5t-65 -49.5h-1q1 11 8.5 108t10.5 123h355v98h-455l-34 -434h106q52 80 148 80q68 0 113.5 -42.5t45.5 -110.5q0 -72 -47 -117t-113 -45q-57 0 -102 28.5t-54 76.5
h-113zM411 1439h978q102 0 170.5 -68t68.5 -168v-986q0 -100 -68.5 -167.5t-170.5 -67.5h-978q-101 0 -170 67.5t-69 167.5v986q0 100 69 168t170 68z" />
    <glyph glyph-name="six.blacksquare" unicode="&#x36;&#x20de;&#x25a0;" 
d="M1178 597q0 104 -66 172t-167 68q-86 0 -137 -49l-8 2q4 6 17.5 25t20.5 29q162 217 200 261h-132q-9 -10 -85.5 -114t-81.5 -113q-107 -147 -107 -276q0 -117 76 -190t198 -73q120 0 196 72t76 186zM744 593q0 69 45.5 115t115.5 46t115.5 -46t45.5 -115t-45.5 -115
t-115.5 -46t-115.5 46t-45.5 115zM411 1439h978q102 0 170.5 -68t68.5 -168v-986q0 -100 -68.5 -167.5t-170.5 -67.5h-978q-101 0 -170 67.5t-69 167.5v986q0 100 69 168t170 68z" />
    <glyph glyph-name="seven.blacksquare" unicode="&#x37;&#x20de;&#x25a0;" 
d="M645 1102v-100h395v-1l-328 -650h129l322 653v98h-518zM411 1439h978q102 0 170.5 -68t68.5 -168v-986q0 -100 -68.5 -167.5t-170.5 -67.5h-978q-101 0 -170 67.5t-69 167.5v986q0 100 69 168t170 68z" />
    <glyph glyph-name="eight.blacksquare" unicode="&#x38;&#x20de;&#x25a0;" 
d="M898 788q-62 0 -101.5 33t-39.5 86q0 52 39.5 85t101.5 33t101.5 -33t39.5 -85t-39.5 -85.5t-101.5 -33.5zM898 428q-74 0 -122 39t-48 98q0 58 48 96.5t122 38.5q73 0 121 -38t48 -97t-48 -98t-121 -39zM898 336q128 0 208.5 62t80.5 161q0 68 -44 119.5t-117 67.5v1
q61 19 95.5 65t34.5 105q0 89 -72 145t-186 56t-186 -56t-72 -145q0 -59 34.5 -105t95.5 -65v-1q-73 -16 -117 -67.5t-44 -119.5q0 -99 80.5 -161t208.5 -62zM411 1439h978q102 0 170.5 -68t68.5 -168v-986q0 -100 -68.5 -167.5t-170.5 -67.5h-978q-101 0 -170 67.5
t-69 167.5v986q0 100 69 168t170 68z" />
    <glyph glyph-name="nine.blacksquare" unicode="&#x39;&#x20de;&#x25a0;" 
d="M620 860q0 -104 66 -172t167 -68q86 0 137 49l8 -2q-6 -9 -33 -46q-27 -38 -108 -143.5t-97 -125.5h132q9 9 86 113.5t81 113.5q108 149 108 275q0 117 -76.5 190.5t-197.5 73.5t-197 -72.5t-76 -185.5zM1055 864q0 -69 -46 -115t-116 -46t-115.5 46t-45.5 115
q0 68 46 114t115 46q70 0 116 -46t46 -114zM411 1439h978q102 0 170.5 -68t68.5 -168v-986q0 -100 -68.5 -167.5t-170.5 -67.5h-978q-101 0 -170 67.5t-69 167.5v986q0 100 69 168t170 68z" />
    <glyph glyph-name="plus.uc.blacksquare" unicode="&#x2b;&#x20de;&#x25a0;" 
d="M953 674h232v98h-232v231h-106v-231h-232v-98h232v-241h106v241zM411 1439h978q102 0 170.5 -68t68.5 -168v-986q0 -100 -68.5 -167.5t-170.5 -67.5h-978q-101 0 -170 67.5t-69 167.5v986q0 100 69 168t170 68z" />
    <glyph glyph-name="minus.uc.blacksquare" unicode="&#x2212;&#x20de;&#x25a0;" 
d="M1171 669v101h-542v-101h542zM411 1439h978q102 0 170.5 -68t68.5 -168v-986q0 -100 -68.5 -167.5t-170.5 -67.5h-978q-101 0 -170 67.5t-69 167.5v986q0 100 69 168t170 68z" />
    <glyph glyph-name="multiply.uc.blacksquare" unicode="&#xd7;&#x20de;&#x25a0;" 
d="M898 787l-174 169l-75 -72l174 -169l-174 -168l75 -72l174 168l174 -168l74 72l-174 168l174 169l-74 72zM411 1439h978q102 0 170.5 -68t68.5 -168v-986q0 -100 -68.5 -167.5t-170.5 -67.5h-978q-101 0 -170 67.5t-69 167.5v986q0 100 69 168t170 68z" />
    <glyph glyph-name="divide.uc.blacksquare" unicode="&#xf7;&#x20de;&#x25a0;" 
d="M820 934q0 -32 23 -53t56 -21q34 0 58 21t24 53q0 34 -23.5 56t-58.5 22q-33 0 -56 -22.5t-23 -55.5zM1171 673v91h-542v-91h542zM820 506q0 -32 23 -53t57 -21t57.5 21.5t23.5 53.5q0 33 -23.5 54.5t-57.5 21.5t-57 -22t-23 -55zM411 1439h978q102 0 170.5 -68
t68.5 -168v-986q0 -100 -68.5 -167.5t-170.5 -67.5h-978q-101 0 -170 67.5t-69 167.5v986q0 100 69 168t170 68z" />
    <glyph glyph-name="equal.uc.blacksquare" unicode="&#x3d;&#x20de;&#x25a0;" 
d="M1160 787v95h-519v-95h519zM1160 557v94h-519v-94h519zM411 1439h978q102 0 170.5 -68t68.5 -168v-986q0 -100 -68.5 -167.5t-170.5 -67.5h-978q-101 0 -170 67.5t-69 167.5v986q0 100 69 168t170 68z" />
    <glyph glyph-name="greater.uc.blacksquare" unicode="&#x3e;&#x20de;&#x25a0;" 
d="M1176 752l-507 288v-119l378 -209v-2l-378 -201v-119l507 277v85zM411 1439h978q102 0 170.5 -68t68.5 -168v-986q0 -100 -68.5 -167.5t-170.5 -67.5h-978q-101 0 -170 67.5t-69 167.5v986q0 100 69 168t170 68z" />
    <glyph glyph-name="less.uc.blacksquare" unicode="&#x3c;&#x20de;&#x25a0;" 
d="M619 667l507 -277v119q-40 20 -187.5 100t-190.5 101v2l378 209v119l-507 -288v-85zM411 1439h978q102 0 170.5 -68t68.5 -168v-986q0 -100 -68.5 -167.5t-170.5 -67.5h-978q-101 0 -170 67.5t-69 167.5v986q0 100 69 168t170 68z" />
    <glyph glyph-name="numbersign.blacksquare" unicode="&#x23;&#x20de;&#x25a0;" 
d="M836 809h157l-37 -169h-156zM1206 807l18 89h-122l43 203h-97l-43 -203h-146l43 203h-98l-42 -203h-117l-18 -89h115l-33 -158h-121l-18 -91h119l-44 -210h98l44 210h147l-45 -210h98l44 210h116l19 91h-116l33 158h123zM411 1439h978q102 0 170.5 -68t68.5 -168v-986
q0 -100 -68.5 -167.5t-170.5 -67.5h-978q-101 0 -170 67.5t-69 167.5v986q0 100 69 168t170 68z" />
    <glyph glyph-name="uni25BC.blacksquare" unicode="&#x25bc;&#x20de;&#x25a0;" 
d="M1219 940h-637l318 -540zM411 1439h978q102 0 170.5 -68t68.5 -168v-986q0 -100 -68.5 -167.5t-170.5 -67.5h-978q-101 0 -170 67.5t-69 167.5v986q0 100 69 168t170 68z" />
    <glyph glyph-name="uni25B2.blacksquare" unicode="&#x25b2;&#x20de;&#x25a0;" 
d="M1219 499l-319 540l-318 -540h637zM411 1439h978q102 0 170.5 -68t68.5 -168v-986q0 -100 -68.5 -167.5t-170.5 -67.5h-978q-101 0 -170 67.5t-69 167.5v986q0 100 69 168t170 68z" />
    <glyph glyph-name="uni25C0.blacksquare" unicode="&#x25c0;&#x20de;&#x25a0;" 
d="M1117 404v636l-539 -318zM411 1439h978q102 0 170.5 -68t68.5 -168v-986q0 -100 -68.5 -167.5t-170.5 -67.5h-978q-101 0 -170 67.5t-69 167.5v986q0 100 69 168t170 68z" />
    <glyph glyph-name="uni25B6.blacksquare" unicode="&#x25b6;&#x20de;&#x25a0;" 
d="M683 404l540 318l-540 318v-636zM411 1439h978q102 0 170.5 -68t68.5 -168v-986q0 -100 -68.5 -167.5t-170.5 -67.5h-978q-101 0 -170 67.5t-69 167.5v986q0 100 69 168t170 68z" />
    <glyph glyph-name="question.blacksquare" unicode="&#x3f;&#x20de;&#x25a0;" 
d="M796 418q0 -33 25 -55.5t62 -22.5q39 0 64.5 22.5t25.5 55.5q0 35 -25 57.5t-65 22.5q-37 0 -62 -22.5t-25 -57.5zM899 1119q-103 0 -174.5 -55t-71.5 -161v-3h112q2 55 36 89t93 34q54 0 90 -27t36 -75q0 -36 -21.5 -62t-71.5 -61q-54 -38 -80 -77.5t-23 -94.5v-44h110
v37q0 41 18 64.5t71 61.5q58 41 87.5 80.5t29.5 101.5q0 88 -69.5 140t-171.5 52zM411 1439h978q102 0 170.5 -68t68.5 -168v-986q0 -100 -68.5 -167.5t-170.5 -67.5h-978q-101 0 -170 67.5t-69 167.5v986q0 100 69 168t170 68z" />
    <glyph glyph-name="exclam.blacksquare" unicode="&#x21;&#x20de;&#x25a0;" 
d="M835 1102l12 -499h106l12 499h-130zM812 419q0 -33 25 -55.5t63 -22.5t63 22.5t25 55.5q0 34 -25 56.5t-63 22.5t-63 -22.5t-25 -56.5zM411 1439h978q102 0 170.5 -68t68.5 -168v-986q0 -100 -68.5 -167.5t-170.5 -67.5h-978q-101 0 -170 67.5t-69 167.5v986
q0 100 69 168t170 68z" />
    <glyph glyph-name="uni2717.blacksquare" unicode="&#x2717;&#x20de;&#x25a0;" 
d="M539 1007l289 -289l-288 -288l75 -75l288 287l288 -287l74 75l-288 288l288 287l-74 75l-288 -288l-289 289zM411 1439h978q102 0 170.5 -68t68.5 -168v-986q0 -100 -68.5 -167.5t-170.5 -67.5h-978q-101 0 -170 67.5t-69 167.5v986q0 100 69 168t170 68z" />
    <glyph glyph-name="uni2713.blacksquare" unicode="&#x2713;&#x20de;&#x25a0;" 
d="M766 386l588 588l-78 80l-511 -512l-228 230l-79 -78zM411 1439h978q102 0 170.5 -68t68.5 -168v-986q0 -100 -68.5 -167.5t-170.5 -67.5h-978q-101 0 -170 67.5t-69 167.5v986q0 100 69 168t170 68z" />
    <glyph glyph-name=".notdef" horiz-adv-x="2048" 
d="M100 -494v308h1848v-308h-1848zM100 -67v308h1848v-308h-1848zM100 361v307h1848v-307h-1848zM100 788v307h1848v-307h-1848zM100 1215v308h1848v-308h-1848zM100 1642v308h1848v-308h-1848z" />
    <glyph glyph-name=".null" horiz-adv-x="0" 
 />
    <glyph glyph-name="nonmarkingreturn" horiz-adv-x="0" 
 />
    <glyph glyph-name="space" unicode=" " horiz-adv-x="554" 
 />
    <glyph glyph-name="exclam" unicode="!" horiz-adv-x="617" 
d="M233 1444h150l-11 -987h-127zM308 -14q-49 0 -80.5 31.5t-31.5 80.5t31.5 81t80.5 32t80.5 -31.5t31.5 -81.5q0 -49 -31.5 -80.5t-80.5 -31.5z" />
    <glyph glyph-name="quotedbl" unicode="&#x22;" horiz-adv-x="802" 
d="M296 935h-123v508h123v-508zM629 935h-123v508h123v-508z" />
    <glyph glyph-name="numbersign" unicode="#" horiz-adv-x="1316" 
d="M685 0l86 419h-361l-86 -419h-110l85 419h-248l22 111h250l79 395h-259l22 110h259l86 410h110l-83 -410h359l86 410h111l-85 -410h267l-21 -110h-269l-80 -395h277l-21 -111h-278l-86 -419h-112zM433 528h362l79 398h-361z" />
    <glyph glyph-name="dollar" unicode="$" horiz-adv-x="1321" 
d="M714 -150h-104v141q-203 13 -330.5 123.5t-129.5 276.5h130q8 -114 98.5 -191t231.5 -90v579l-55 15q-189 48 -279.5 139t-90.5 232q0 161 116 266.5t309 119.5v138h104v-137q186 -14 305.5 -120t123.5 -262h-130q-4 104 -88 178t-211 85v-544l59 -15q210 -52 304 -144
t94 -245q0 -172 -123.5 -280.5t-333.5 -122.5v-142zM1039 385q0 112 -76 178t-249 105v-560q148 7 236.5 82.5t88.5 194.5zM316 1082q0 -101 71 -163.5t223 -96.5v521q-127 -6 -210.5 -80t-83.5 -181z" />
    <glyph glyph-name="percent" unicode="%" horiz-adv-x="1610" 
d="M690 1125q0 -151 -83 -246t-214 -95t-214.5 95t-83.5 246q0 149 83 244t215 95q131 0 214 -94.5t83 -244.5zM393 885q78 0 126 66t48 174q0 109 -47 174t-127 65t-128 -65.5t-48 -173.5t48.5 -174t127.5 -66zM347 0h-143l551 746l514 697h141l-557 -756zM1515 320
q0 -151 -83 -246t-214 -95t-214.5 95t-83.5 246q0 149 83 244t215 95q131 0 214 -94.5t83 -244.5zM1218 79q78 0 126 66.5t48 174.5q0 109 -47 173.5t-127 64.5t-128 -65t-48 -173q0 -109 48.5 -175t127.5 -66z" />
    <glyph glyph-name="ampersand" unicode="&#x26;" horiz-adv-x="1472" 
d="M1233 0l-158 168q-93 -91 -219.5 -142t-259.5 -51q-209 0 -341.5 112.5t-132.5 289.5q0 243 281 392q5 3 38.5 20t38.5 20q-110 113 -153.5 191t-43.5 158q0 134 102.5 224t255.5 90t253.5 -89t100.5 -225q0 -109 -76.5 -198t-251.5 -179l400 -427q92 163 92 403v46h128
v-46q0 -299 -130 -495l248 -262h-172zM482 686q-111 -58 -167.5 -135t-56.5 -166q0 -128 97 -210.5t252 -82.5q107 0 212.5 45t172.5 118l-436 469q-3 -1 -19 -9.5t-33.5 -17.5t-21.5 -11zM592 859q147 73 210.5 142.5t63.5 151.5q0 91 -63.5 150t-161.5 59
q-96 0 -161.5 -60.5t-65.5 -150.5q0 -64 38.5 -127t139.5 -165z" />
    <glyph glyph-name="quotesingle" unicode="'" horiz-adv-x="469" 
d="M296 935h-123v508h123v-508z" />
    <glyph glyph-name="parenleft" unicode="(" horiz-adv-x="751" 
d="M244 601q0 540 280 905h114q-113 -147 -186.5 -403t-73.5 -502q0 -248 73 -503t187 -402h-114q-280 365 -280 905z" />
    <glyph glyph-name="parenright" unicode=")" horiz-adv-x="751" 
d="M507 601q0 -540 -280 -905h-114q114 147 187 402t73 503q0 246 -73.5 502t-186.5 403h114q280 -365 280 -905z" />
    <glyph glyph-name="asterisk" unicode="*" horiz-adv-x="1037" 
d="M817 844l-258 162l12 -302h-106l12 303l-257 -163l-52 90l269 142l-269 142l52 92l257 -165l-12 305h106l-12 -305l258 165l51 -92l-268 -142l268 -141z" />
    <glyph glyph-name="plus" unicode="+" horiz-adv-x="1321" 
d="M718 523v-456h-115v456h-444v114h444v448h115v-448h443v-114h-443z" />
    <glyph glyph-name="comma" unicode="," horiz-adv-x="593" 
d="M243 -349h-99l97 532h148z" />
    <glyph glyph-name="hyphen" unicode="&#x2011;" horiz-adv-x="975" 
d="M815 520h-656v124h656v-124z" />
    <glyph glyph-name="hyphen" unicode="-" horiz-adv-x="975" 
d="M815 520h-656v124h656v-124z" />
    <glyph glyph-name="period" unicode="." horiz-adv-x="593" 
d="M297 -8q-44 0 -75 30.5t-31 74.5t31 75t75 31t74.5 -31t30.5 -75t-30.5 -74.5t-74.5 -30.5z" />
    <glyph glyph-name="slash" unicode="/" horiz-adv-x="676" 
d="M138 -304h-118l518 1810h118z" />
    <glyph glyph-name="zero" unicode="0" horiz-adv-x="1282" 
d="M642 -30q-241 0 -375.5 198.5t-134.5 553.5q0 352 135.5 551.5t374.5 199.5q238 0 372.5 -200t134.5 -553q0 -354 -134 -552t-373 -198zM642 90q176 0 273 166t97 466q0 298 -97.5 464t-272.5 166t-273.5 -166.5t-98.5 -463.5q0 -300 98 -466t274 -166z" />
    <glyph glyph-name="one" unicode="1" horiz-adv-x="913" 
d="M503 0v1290h-13q-21 -11 -190 -129.5t-186 -129.5v145q4 3 179 124.5t210 142.5h136v-1443h-136z" />
    <glyph glyph-name="two" unicode="2" horiz-adv-x="1222" 
d="M152 1045q1 123 59.5 221t161.5 152.5t232 54.5q190 0 319 -115.5t129 -285.5q0 -112 -64 -221t-242 -299l-390 -416v-12h732v-124h-929v96l504 545q151 162 201.5 247.5t50.5 178.5q0 121 -90.5 203.5t-223.5 82.5q-139 0 -227 -85.5t-90 -222.5v-1h-133v1z" />
    <glyph glyph-name="three" unicode="3" horiz-adv-x="1260" 
d="M443 686v118h169q140 0 227.5 77.5t87.5 201.5q0 118 -87 194t-221 76t-221.5 -73.5t-97.5 -196.5h-133q12 177 136.5 283.5t320.5 106.5q184 0 313 -109t129 -265q0 -131 -71 -220.5t-197 -117.5v-13q155 -17 244.5 -113.5t89.5 -244.5q0 -178 -145 -299t-357 -121
q-209 0 -347.5 112t-145.5 287h132q9 -122 110.5 -200.5t249.5 -78.5q157 0 259.5 86t102.5 217q0 136 -100 214.5t-273 78.5h-175z" />
    <glyph glyph-name="four" unicode="4" horiz-adv-x="1312" 
d="M844 0v326h-725v125q223 377 662 994h196v-996h216v-123h-216v-326h-133zM262 457v-9h582v866h-9q-192 -262 -318 -452t-255 -405z" />
    <glyph glyph-name="five" unicode="5" horiz-adv-x="1256" 
d="M629 -30q-197 0 -331.5 113.5t-145.5 289.5h134q11 -121 109 -201.5t235 -80.5q158 0 260 102t102 261t-101.5 261t-257.5 102q-106 0 -194.5 -48.5t-134.5 -131.5h-130l78 806h787v-123h-679l-48 -526h13q52 68 138 105t192 37q208 0 341 -134.5t133 -343.5
q0 -214 -140 -351t-360 -137z" />
    <glyph glyph-name="six" unicode="6" horiz-adv-x="1288" 
d="M665 -29q-146 0 -258.5 70.5t-180.5 204.5q-96 170 -96 445q0 368 144 575t401 207q179 0 304.5 -100t156.5 -269h-140q-27 113 -114.5 179.5t-208.5 66.5q-194 0 -301 -174.5t-109 -495.5h12q47 122 158.5 194t252.5 72q205 0 340.5 -136.5t135.5 -343.5
q0 -215 -140.5 -355t-356.5 -140zM663 92q154 0 257.5 106t103.5 263q0 160 -101.5 263t-258.5 103q-155 0 -260 -102.5t-105 -253.5q0 -161 104.5 -270t259.5 -109z" />
    <glyph glyph-name="seven" unicode="7" horiz-adv-x="1161" 
d="M240 0l667 1309v11h-800v123h940v-128l-661 -1315h-146z" />
    <glyph glyph-name="eight" unicode="8" horiz-adv-x="1294" 
d="M647 -30q-226 0 -368.5 117t-142.5 302q0 140 86.5 242t228.5 127v12q-118 28 -188.5 115.5t-70.5 205.5q0 167 128 274.5t327 107.5q200 0 327.5 -107t127.5 -275q0 -118 -70 -205.5t-188 -115.5v-12q141 -26 228 -127.5t87 -241.5q0 -186 -142.5 -302.5t-369.5 -116.5z
M647 88q166 0 270 86.5t104 223.5q0 134 -103.5 217.5t-270.5 83.5q-166 0 -269.5 -83.5t-103.5 -217.5q0 -137 103.5 -223.5t269.5 -86.5zM647 817q143 0 231.5 72.5t88.5 190.5q0 122 -89 198.5t-231 76.5t-231 -76.5t-89 -198.5q0 -117 89 -190t231 -73z" />
    <glyph glyph-name="nine" unicode="9" horiz-adv-x="1288" 
d="M613 -29q-181 0 -305.5 100t-155.5 268h140q27 -112 113.5 -179t209.5 -67q190 0 296 166.5t114 470.5q1 6 -2.5 18t-3.5 15h-3h-3q-47 -120 -158.5 -192.5t-252.5 -72.5q-207 0 -341.5 135.5t-134.5 342.5q0 216 140.5 356.5t356.5 140.5q146 0 258.5 -71.5
t180.5 -205.5q96 -168 96 -444q0 -368 -143.5 -574.5t-401.5 -206.5zM624 617q155 0 260 102.5t105 252.5q0 161 -104.5 270.5t-259.5 109.5q-154 0 -257.5 -107t-103.5 -265t101 -260.5t259 -102.5z" />
    <glyph glyph-name="colon" unicode=":" horiz-adv-x="593" 
d="M297 -8q-44 0 -75 30.5t-31 74.5t31 75t75 31t74.5 -31t30.5 -75t-30.5 -74.5t-74.5 -30.5zM297 770q-44 0 -75 31t-31 75t31 75t75 31t74.5 -31t30.5 -75t-30.5 -75t-74.5 -31z" />
    <glyph glyph-name="semicolon" unicode=";" horiz-adv-x="593" 
d="M297 770q-44 0 -75 31t-31 75t31 75t75 31t74.5 -31t30.5 -75t-30.5 -75t-74.5 -31zM226 -349h-100l98 532h147z" />
    <glyph glyph-name="less" unicode="&#x3c;" horiz-adv-x="1321" 
d="M1093 1019l-733 -437v-12l733 -436v-143l-865 531v109l865 531v-143z" />
    <glyph glyph-name="equal" unicode="=" horiz-adv-x="1321" 
d="M1158 331h-995v115h995v-115zM1158 714h-995v115h995v-115z" />
    <glyph glyph-name="greater" unicode="&#x3e;" horiz-adv-x="1321" 
d="M228 1019v143l865 -531v-109l-865 -531v143l732 436v12z" />
    <glyph glyph-name="question" unicode="?" horiz-adv-x="1020" 
d="M82 1079q9 165 120 271t299 106q179 0 294.5 -102t115.5 -256q0 -108 -52.5 -190.5t-158.5 -150.5q-98 -63 -133 -115.5t-35 -136.5v-75h-133v94q-1 99 45 169t153 138q95 62 134 120.5t39 140.5q0 107 -77 176t-197 69t-197 -70t-87 -188h-130zM478 -14
q-49 0 -80.5 31.5t-31.5 80.5q0 50 31.5 81.5t80.5 31.5t80 -31.5t31 -81.5q0 -49 -31 -80.5t-80 -31.5z" />
    <glyph glyph-name="at" unicode="@" horiz-adv-x="1871" 
d="M929 906q-110 0 -176.5 -85.5t-66.5 -226.5q0 -142 66 -226t176 -84q111 0 177 86t66 229q0 141 -65.5 224t-176.5 83zM961 1434q233 0 415.5 -94t283.5 -263.5t101 -386.5q0 -242 -94 -382t-257 -140q-93 0 -155.5 51t-70.5 133h-13q-34 -85 -101 -131t-158 -46
q-155 0 -252 117t-97 305q0 184 97.5 300t251.5 116q84 0 152 -44t96 -117h13v141h116v-575q0 -72 36.5 -110t104.5 -38q103 0 162 113t59 309q0 188 -88 334.5t-247 227.5t-364 81q-151 0 -282 -55t-224 -152t-146 -233.5t-53 -294.5q0 -331 199 -532t526 -201
q223 0 332 44v-99q-132 -44 -333 -44q-378 0 -605.5 228.5t-227.5 607.5q0 242 104 431t291.5 294t427.5 105z" />
    <glyph glyph-name="A" unicode="A" horiz-adv-x="1363" 
d="M1145 0l-160 442h-606l-160 -442h-145l540 1443h136l539 -1443h-144zM675 1264l-255 -704h524l-256 704h-13z" />
    <glyph glyph-name="B" unicode="B" horiz-adv-x="1319" 
d="M715 0h-530v1443h519q199 0 314 -95.5t115 -260.5q0 -121 -74 -209.5t-190 -108.5v-13q153 -17 245.5 -113t92.5 -244q0 -189 -129 -294t-363 -105zM322 1322v-515h323q168 0 259 66.5t91 191.5q0 121 -84.5 189t-232.5 68h-356zM322 121h374q181 0 276 73t95 212
q0 137 -100 209.5t-288 72.5h-357v-567z" />
    <glyph glyph-name="C" unicode="C" horiz-adv-x="1455" 
d="M763 -30q-294 0 -465 202t-171 549t171 549.5t464 202.5q147 0 271.5 -60.5t205 -168t99.5 -242.5h-139q-31 153 -152.5 248.5t-284.5 95.5q-227 0 -361 -169.5t-134 -455.5q0 -287 134 -455.5t362 -168.5q167 0 286.5 86t149.5 228h139q-31 -199 -188.5 -320
t-386.5 -121z" />
    <glyph glyph-name="D" unicode="D" horiz-adv-x="1471" 
d="M185 1443h475q327 0 506 -191t179 -530q0 -340 -178.5 -531t-506.5 -191h-475v1443zM322 1319v-1195h330q263 0 408 158t145 439t-145 439.5t-408 158.5h-330z" />
    <glyph glyph-name="E" unicode="E" horiz-adv-x="1197" 
d="M1057 124v-124h-872v1443h872v-124h-735v-519h698v-122h-698v-554h735z" />
    <glyph glyph-name="F" unicode="F" horiz-adv-x="1155" 
d="M322 0h-137v1443h856v-124h-719v-542h661v-122h-661v-655z" />
    <glyph glyph-name="G" unicode="G" horiz-adv-x="1506" 
d="M1375 559q0 -268 -164 -428.5t-438 -160.5q-293 0 -469.5 205.5t-176.5 546.5q0 339 176 545t467 206q231 0 391.5 -123t199.5 -329h-139q-45 155 -163 240t-289 85q-229 0 -366 -170t-137 -454q0 -285 137.5 -455t368.5 -170q212 0 339 123.5t127 327.5v50h-440v121h576
v-160z" />
    <glyph glyph-name="H" unicode="H" horiz-adv-x="1488" 
d="M1303 0h-137v677h-844v-677h-137v1443h137v-642h844v642h137v-1443z" />
    <glyph glyph-name="I" unicode="I" horiz-adv-x="507" 
d="M322 0h-137v1443h137v-1443z" />
    <glyph glyph-name="J" unicode="J" horiz-adv-x="1088" 
d="M92 330h136q5 -103 78 -168t186 -65q131 0 202.5 78.5t71.5 222.5v1045h137v-1050q0 -197 -110 -310t-300 -113q-175 0 -287.5 100.5t-113.5 259.5z" />
    <glyph glyph-name="K" unicode="K" horiz-adv-x="1311" 
d="M322 0h-137v1443h137v-746h12l683 746h171l-578 -623l637 -820h-177l-555 725l-193 -210v-515z" />
    <glyph glyph-name="L" unicode="L" horiz-adv-x="1139" 
d="M1044 124v-124h-859v1443h137v-1319h722z" />
    <glyph glyph-name="M" unicode="M" horiz-adv-x="1761" 
d="M1576 0h-128v1177h-10l-498 -1170h-119l-498 1170h-9v-1177h-129v1443h157l533 -1256h12l531 1256h158v-1443z" />
    <glyph glyph-name="N" unicode="N" horiz-adv-x="1494" 
d="M320 0h-135v1443h135l841 -1198h13v1198h135v-1443h-132l-844 1199h-13v-1199z" />
    <glyph glyph-name="O" unicode="O" horiz-adv-x="1561" 
d="M781 1473q303 0 477.5 -202t174.5 -549t-174.5 -549.5t-477.5 -202.5q-304 0 -479 202.5t-175 549.5q0 346 176 548.5t478 202.5zM781 1346q-236 0 -375 -168.5t-139 -455.5q0 -286 138 -455.5t376 -169.5q237 0 374.5 169.5t137.5 455.5q0 287 -137.5 455.5
t-374.5 168.5z" />
    <glyph glyph-name="P" unicode="P" horiz-adv-x="1272" 
d="M185 1443h513q207 0 334.5 -125t127.5 -327q0 -199 -129 -323t-335 -124h-374v-544h-137v1443zM322 1321v-655h343q167 0 261.5 86.5t94.5 238.5q0 156 -93.5 243t-262.5 87h-343z" />
    <glyph glyph-name="Q" unicode="Q" horiz-adv-x="1561" 
d="M781 -30q-304 0 -479 201t-175 550q0 348 176 550t478 202q301 0 476.5 -202.5t175.5 -549.5q0 -219 -70 -384t-200 -253l183 -253h-154l-140 191q-122 -52 -271 -52zM782 97q104 0 192 35l-194 263h155l148 -198q101 73 155.5 208.5t54.5 315.5q0 287 -138.5 456
t-373.5 169q-236 0 -375 -169t-139 -456q0 -288 139 -456t376 -168z" />
    <glyph glyph-name="R" unicode="R" horiz-adv-x="1309" 
d="M322 1321v-608h369q157 0 244.5 80t87.5 224q0 142 -90 223t-248 81h-363zM322 591v-591h-137v1443h517q211 0 336 -114.5t125 -307.5q0 -153 -82 -261.5t-227 -146.5l350 -613h-160l-332 591h-21h-369z" />
    <glyph glyph-name="S" unicode="S" horiz-adv-x="1284" 
d="M115 375h138q14 -124 126.5 -202t277.5 -78q161 0 266 80t105 201q0 102 -77.5 170t-244.5 109l-165 42q-203 50 -294 139.5t-91 236.5q0 176 137.5 288t356.5 112q206 0 345 -108.5t150 -274.5h-138q-17 116 -114.5 187t-246.5 71q-155 0 -252.5 -76.5t-97.5 -194.5
q0 -94 72 -153.5t237 -100.5l143 -36q223 -55 321.5 -148.5t98.5 -247.5q0 -189 -143.5 -305t-379.5 -116q-224 0 -370.5 112t-159.5 293z" />
    <glyph glyph-name="T" unicode="T" horiz-adv-x="1280" 
d="M708 0h-136v1319h-484v124h1104v-124h-484v-1319z" />
    <glyph glyph-name="U" unicode="U" horiz-adv-x="1494" 
d="M325 1443v-934q0 -183 114 -296t308 -113t308 113t114 296v934h137v-943q0 -237 -151 -381.5t-408 -144.5q-256 0 -407 144.5t-151 381.5v943h136z" />
    <glyph glyph-name="V" unicode="V" horiz-adv-x="1363" 
d="M750 0h-136l-540 1443h144l457 -1264h13l457 1264h144z" />
    <glyph glyph-name="W" unicode="W" horiz-adv-x="1956" 
d="M973 1205l-354 -1205h-127l-397 1443h142l317 -1230h9l347 1230h136l347 -1230h9l317 1230h142l-397 -1443h-127l-354 1205h-10z" />
    <glyph glyph-name="X" unicode="X" horiz-adv-x="1366" 
d="M95 0l504 724l-500 719h165l418 -609h11l422 609h156l-508 -724l500 -719h-164l-416 606h-11l-421 -606h-156z" />
    <glyph glyph-name="Y" unicode="Y" horiz-adv-x="1321" 
d="M729 0h-136v624l-518 819h157l423 -680h12l423 680h156l-517 -819v-624z" />
    <glyph glyph-name="Z" unicode="Z" horiz-adv-x="1328" 
d="M138 0v99l863 1208v12h-834v124h1011v-100l-860 -1207v-12h872v-124h-1052z" />
    <glyph glyph-name="bracketleft" unicode="[" horiz-adv-x="751" 
d="M265 1506h404v-106h-275v-1599h280v-105h-409v1810z" />
    <glyph glyph-name="backslash" unicode="\" horiz-adv-x="676" 
d="M538 -304l-518 1810h118l518 -1810h-118z" />
    <glyph glyph-name="bracketright" unicode="]" horiz-adv-x="751" 
d="M486 1506v-1810h-409v105h280v1599h-280v106h409z" />
    <glyph glyph-name="asciicircum" unicode="^" horiz-adv-x="947" 
d="M468 1302l-236 -508h-126l298 622h140l298 -622h-127l-235 508h-12z" />
    <glyph glyph-name="underscore" unicode="_" horiz-adv-x="919" 
d="M927 -222h-935v100h935v-100z" />
    <glyph glyph-name="grave" unicode="`" horiz-adv-x="999" 
d="M709 1267h-149l-269 327h168z" />
    <glyph glyph-name="a" unicode="a" horiz-adv-x="1125" 
d="M491 98q145 0 242.5 87.5t97.5 215.5v126l-319 -23q-271 -19 -271 -204q0 -92 70 -147t180 -55zM469 -18q-160 0 -261.5 86.5t-101.5 229.5q0 140 100 220.5t288 93.5l337 22v104q0 116 -68.5 178t-199.5 62q-111 0 -186.5 -44.5t-94.5 -122.5h-133q19 128 133.5 206
t284.5 78q189 0 292.5 -93.5t103.5 -262.5v-739h-126v185h-12q-49 -96 -143 -149.5t-213 -53.5z" />
    <glyph glyph-name="b" unicode="b" horiz-adv-x="1252" 
d="M685 -18q-124 0 -222 62t-146 171h-13v-215h-125v1506h131v-638h12q45 105 143 166t220 61q205 0 329 -152t124 -404q0 -251 -124.5 -404t-328.5 -153zM658 977q-159 0 -255 -119.5t-96 -318.5t96 -318.5t255 -119.5t252 118.5t93 320.5q0 201 -93 319t-252 118z" />
    <glyph glyph-name="c" unicode="c" horiz-adv-x="1145" 
d="M1042 760h-133q-26 96 -107.5 156.5t-201.5 60.5q-161 0 -255.5 -118t-94.5 -317q0 -202 95 -321.5t255 -119.5q120 0 201.5 55t106.5 154h133q-25 -148 -142 -238t-298 -90q-223 0 -354.5 151.5t-131.5 408.5q0 253 131.5 403t353.5 150q180 0 298.5 -94.5t143.5 -240.5
z" />
    <glyph glyph-name="d" unicode="d" horiz-adv-x="1256" 
d="M571 -18q-206 0 -331 152.5t-125 403.5q0 250 125.5 403.5t330.5 153.5q123 0 220 -61t143 -167h12v639h131v-1506h-126v215h-12q-48 -108 -146.5 -170.5t-221.5 -62.5zM599 977q-160 0 -254.5 -119t-94.5 -319q0 -201 94.5 -319.5t254.5 -118.5q159 0 254 119t95 319
q0 198 -95.5 318t-253.5 120z" />
    <glyph glyph-name="e" unicode="e" horiz-adv-x="1174" 
d="M595 979q-147 0 -241 -100.5t-103 -266.5h671q-2 167 -91.5 267t-235.5 100zM909 266h133q-40 -132 -158 -208t-287 -76q-222 0 -352 150.5t-130 405.5q0 254 130.5 405.5t350.5 151.5q215 0 339 -143t124 -390v-58h-809v-6q5 -183 99.5 -291t250.5 -108q114 0 194 43.5
t115 123.5z" />
    <glyph glyph-name="f" unicode="f" horiz-adv-x="718" 
d="M241 0v966h-179v111h179v138q0 149 74 225t215 76q59 0 106 -10v-108q-32 6 -81 6q-183 0 -183 -192v-135h254v-111h-254v-966h-131z" />
    <glyph glyph-name="g" unicode="g" horiz-adv-x="1242" 
d="M595 128q161 0 255.5 115t94.5 307q0 193 -95.5 310t-254.5 117q-160 0 -252.5 -115.5t-92.5 -309.5q0 -193 92.5 -308.5t252.5 -115.5zM606 -404q-184 0 -301 75.5t-138 202.5h139q18 -75 98 -119t202 -44q156 0 246.5 76t90.5 207v242h-13q-48 -107 -142.5 -166
t-218.5 -59q-207 0 -330.5 148.5t-123.5 392.5t124 393.5t330 149.5q123 0 223 -63t144 -168h12v213h126v-1093q0 -176 -128 -282t-340 -106z" />
    <glyph glyph-name="h" unicode="h" horiz-adv-x="1210" 
d="M179 0v1506h131v-623h12q44 101 135 156.5t219 55.5q174 0 274 -104.5t100 -290.5v-700h-131v667q0 152 -71.5 231t-206.5 79q-151 0 -241 -93.5t-90 -243.5v-640h-131z" />
    <glyph glyph-name="i" unicode="i" horiz-adv-x="480" 
d="M175 0v1077h131v-1077h-131zM240 1317q-40 0 -68.5 29t-28.5 69t28.5 68.5t68.5 28.5t69 -28.5t29 -68.5q0 -41 -29 -69.5t-69 -28.5z" />
    <glyph glyph-name="j" unicode="j" horiz-adv-x="480" 
d="M306 1077v-1145q0 -156 -74.5 -227.5t-228.5 -71.5h-24v113h21q94 0 134.5 42.5t40.5 139.5v1149h131zM240 1317q-40 0 -68.5 29t-28.5 69t28.5 68.5t68.5 28.5t69 -28.5t29 -68.5q0 -41 -29 -69.5t-69 -28.5z" />
    <glyph glyph-name="k" unicode="k" horiz-adv-x="1092" 
d="M322 573l526 504h164l-481 -462l503 -615h-168l-434 531l-122 -113v-418h-131v1506h131v-933h12z" />
    <glyph glyph-name="l" unicode="l" horiz-adv-x="489" 
d="M179 0v1506h131v-1506h-131z" />
    <glyph glyph-name="m" unicode="m" horiz-adv-x="1772" 
d="M169 0v1077h125v-194h13q35 99 117.5 155.5t193.5 56.5t190.5 -56.5t114.5 -155.5h13q42 98 131.5 155t204.5 57q162 0 251.5 -93.5t89.5 -264.5v-737h-131v707q0 132 -63.5 201t-185.5 69q-123 0 -200 -83.5t-77 -210.5v-683h-131v721q0 116 -68 186t-180 70
q-117 0 -197 -92t-80 -224v-661h-131z" />
    <glyph glyph-name="n" unicode="n" horiz-adv-x="1192" 
d="M169 0v1077h125v-194h13q43 101 132 156.5t216 55.5q180 0 278.5 -103.5t98.5 -291.5v-700h-131v667q0 310 -281 310q-143 0 -231.5 -92.5t-88.5 -244.5v-640h-131z" />
    <glyph glyph-name="o" unicode="o" horiz-adv-x="1208" 
d="M604 -18q-226 0 -357.5 149.5t-131.5 407.5t131.5 407t357.5 149t358 -149t132 -407t-132 -407.5t-358 -149.5zM604 101q166 0 260 116.5t94 321.5t-94 321.5t-260 116.5t-260 -116.5t-94 -321.5t94 -321.5t260 -116.5z" />
    <glyph glyph-name="p" unicode="p" horiz-adv-x="1242" 
d="M675 1095q205 0 329 -152.5t124 -403.5t-124.5 -404t-328.5 -153q-125 0 -221.5 59.5t-141.5 163.5h-12v-562h-131v1434h125v-220h12q50 111 148 174.5t221 63.5zM646 101q160 0 253.5 118t93.5 319q0 202 -93.5 320.5t-252.5 118.5q-158 0 -254.5 -120t-96.5 -318
t96 -318t254 -120z" />
    <glyph glyph-name="q" unicode="q" horiz-adv-x="1246" 
d="M570 1095q122 0 221.5 -64.5t146.5 -173.5h12v220h127v-1434h-133v562h-12q-50 -106 -144.5 -164.5t-217.5 -58.5q-205 0 -330 153t-125 404q0 250 125 403t330 153zM596 101q160 0 256 119.5t96 318.5q0 198 -96 318t-255 120t-253 -119t-94 -319q0 -201 93.5 -319.5
t252.5 -118.5z" />
    <glyph glyph-name="r" unicode="r" horiz-adv-x="764" 
d="M169 0v1077h125v-177h13q27 88 110 141.5t190 53.5q64 0 101 -9v-131q-45 13 -117 13q-125 0 -208 -84.5t-83 -211.5v-672h-131z" />
    <glyph glyph-name="s" unicode="s" horiz-adv-x="1058" 
d="M144 792q0 129 112.5 216t276.5 87q163 0 270 -75.5t125 -203.5h-129q-18 76 -89.5 121.5t-177.5 45.5q-107 0 -181.5 -53t-74.5 -133q0 -66 52 -107t162 -67l148 -35q159 -38 234 -106.5t75 -183.5q0 -138 -119 -227t-297 -89q-176 0 -290 77.5t-130 210.5h136
q22 -82 97 -129t191 -47q119 0 198 55t79 139q0 70 -51 113.5t-160 69.5l-163 39q-152 37 -223 103.5t-71 178.5z" />
    <glyph glyph-name="t" unicode="t" horiz-adv-x="724" 
d="M237 1357h131v-280h249v-111h-249v-668q0 -99 40 -143.5t131 -44.5q45 0 78 3v-112q-40 -7 -92 -7q-155 0 -221.5 63.5t-66.5 210.5v698h-176v111h176v280z" />
    <glyph glyph-name="u" unicode="u" horiz-adv-x="1193" 
d="M1024 1077v-1077h-125v194h-12q-41 -101 -132 -156.5t-219 -55.5q-179 0 -277.5 104.5t-98.5 290.5v700h131v-667q0 -151 70.5 -229.5t208.5 -78.5q150 0 236.5 90.5t86.5 244.5v640h131z" />
    <glyph glyph-name="v" unicode="v" horiz-adv-x="1078" 
d="M1011 1077l-402 -1077h-140l-402 1077h140l326 -934h12l325 934h141z" />
    <glyph glyph-name="w" unicode="w" horiz-adv-x="1566" 
d="M1499 1077l-307 -1077h-139l-265 894h-13l-265 -894h-138l-305 1077h133l239 -914h12l266 914h131l266 -914h12l241 914h132z" />
    <glyph glyph-name="x" unicode="x" horiz-adv-x="1049" 
d="M529 440h-12l-294 -440h-150l380 542l-383 535h158l293 -430h12l291 430h151l-378 -530l382 -547h-157z" />
    <glyph glyph-name="y" unicode="y" horiz-adv-x="1079" 
d="M245 -381q-27 0 -61 4v114q20 -4 59 -4q74 0 120 43t86 150l22 67l-404 1084h142l326 -934h12l325 934h140l-419 -1129q-72 -194 -144 -261.5t-204 -67.5z" />
    <glyph glyph-name="z" unicode="z" horiz-adv-x="1082" 
d="M131 0v100l660 854v12h-659v111h816v-101l-658 -853v-12h660v-111h-819z" />
    <glyph glyph-name="braceleft" unicode="{" horiz-adv-x="751" 
d="M203 591q116 -9 169.5 -65.5t53.5 -166.5v-319q0 -125 49.5 -180t156.5 -55h42v-109h-53q-165 0 -243 79.5t-78 249.5v281q0 122 -48 169.5t-175 47.5v157q127 0 175 47.5t48 170.5v281q0 169 78 248t243 79h53v-109h-42q-109 0 -157.5 -53.5t-48.5 -178.5v-320
q0 -110 -53.5 -166.5t-169.5 -65.5v-22z" />
    <glyph glyph-name="bar" unicode="|" horiz-adv-x="676" 
d="M394 -304h-113v1810h113v-1810z" />
    <glyph glyph-name="braceright" unicode="}" horiz-adv-x="751" 
d="M548 591v22q-116 9 -169.5 65.5t-53.5 166.5v320q0 125 -48.5 178.5t-157.5 53.5h-42v109h53q165 0 243 -79t78 -248v-281q0 -123 48 -170.5t175 -47.5v-157q-127 0 -175 -47.5t-48 -169.5v-281q0 -170 -78 -249.5t-243 -79.5h-53v109h42q107 0 156.5 55t49.5 180v319
q0 110 53.5 166.5t169.5 65.5z" />
    <glyph glyph-name="asciitilde" unicode="~" horiz-adv-x="1204" 
d="M564 650q-61 60 -98.5 82.5t-74.5 22.5q-67 0 -106.5 -51.5t-44.5 -144.5h-123q0 149 73.5 235.5t203.5 86.5q60 0 114.5 -28.5t125.5 -96.5q58 -57 98 -80.5t78 -23.5q68 0 110 53t47 147h122q1 -148 -74 -237t-203 -89q-66 0 -121 27.5t-127 96.5z" />
    <glyph glyph-name="nonbreakingspace" unicode="&#xa0;" horiz-adv-x="554" 
 />
    <glyph glyph-name="exclamdown" unicode="&#xa1;" horiz-adv-x="617" 
d="M233 -340l12 986h127l11 -986h-150zM309 895q-49 0 -80.5 31.5t-31.5 80.5t31.5 80.5t80.5 31.5t80 -31.5t31 -80.5t-31 -80.5t-80 -31.5z" />
    <glyph glyph-name="cent" unicode="&#xa2;" horiz-adv-x="1321" 
d="M1156 483q-24 -135 -135 -222.5t-274 -102.5v-187h-131v189q-200 22 -326 172t-126 383q0 230 126 378t326 170v183h131v-182q159 -17 273 -108.5t137 -223.5h-133q-32 99 -124 158t-217 59q-165 0 -274.5 -119.5t-109.5 -314.5q0 -198 110 -320t274 -122q135 0 225.5 57
t114.5 153h133z" />
    <glyph glyph-name="sterling" unicode="&#xa3;" horiz-adv-x="1321" 
d="M348 118h840v-118h-1063v119q143 33 235.5 127.5t92.5 222.5q0 81 -37 196h-276v112h236q-22 60 -34.5 98t-23.5 93t-11 103q0 188 130.5 296.5t361.5 108.5q95 0 178 -16t131 -40v-123q-41 24 -125.5 40.5t-176.5 16.5q-170 0 -265 -75.5t-95 -204.5q0 -48 11 -104
t23.5 -93.5t34.5 -99.5h470v-112h-431q34 -105 34 -191q0 -125 -69 -212.5t-171 -129.5v-14z" />
    <glyph glyph-name="currency" unicode="&#xa4;" horiz-adv-x="1321" 
d="M375 656q0 -118 84 -202t202 -84t202 84t84 202t-84 202t-202 84t-202 -84t-84 -202zM1139 1052l-167 -168q75 -102 75 -228q0 -128 -76 -229l168 -168l-82 -82l-168 168q-102 -75 -228 -75q-127 0 -228 76l-169 -169l-82 82l168 169q-75 102 -75 228t75 228l-168 168
l82 82l168 -168q101 76 229 76q127 0 228 -76l168 168z" />
    <glyph glyph-name="yen" unicode="&#xa5;" horiz-adv-x="1321" 
d="M1033 310h-304v-310h-137v310h-304v105h304v184h-304v106h259l-472 738h156l423 -670h13l423 670h156l-472 -738h259v-106h-304v-184h304v-105z" />
    <glyph glyph-name="brokenbar" unicode="&#xa6;" horiz-adv-x="676" 
d="M394 781h-113v725h113v-725zM394 -304h-113v722h113v-722z" />
    <glyph glyph-name="section" unicode="&#xa7;" horiz-adv-x="1037" 
d="M459 380l81 -18q108 1 179 61t71 149q0 147 -211 193l-81 18q-107 -1 -179 -61.5t-72 -148.5q0 -145 212 -193zM524 -250q-167 0 -278 79.5t-122 207.5h134q11 -78 86 -126t186 -48q113 0 184.5 51t71.5 131q0 67 -53 110.5t-169 72.5l-129 33q-167 43 -245 112.5
t-78 175.5q0 99 64 169t178 97v12q-230 79 -230 268q0 133 108 216.5t279 83.5q164 0 270 -75.5t123 -203.5h-132q-12 76 -83.5 121.5t-179.5 45.5q-112 0 -182.5 -50.5t-70.5 -130.5q0 -67 52.5 -111t167.5 -73l129 -34q166 -42 243 -110t77 -172t-72.5 -181t-190.5 -99
v-12q254 -60 254 -257q0 -133 -110 -218t-282 -85z" />
    <glyph glyph-name="dieresis" unicode="&#xa8;" horiz-adv-x="998" 
d="M317 1252q-42 0 -72 29.5t-30 72.5t30 72.5t72 29.5q43 0 72.5 -29.5t29.5 -72.5t-29.5 -72.5t-72.5 -29.5zM681 1252q-42 0 -72 29.5t-30 72.5t30 72.5t72 29.5q43 0 72.5 -29.5t29.5 -72.5t-29.5 -72.5t-72.5 -29.5z" />
    <glyph glyph-name="copyright" unicode="&#xa9;" horiz-adv-x="1742" 
d="M871 -158q-163 0 -308 60.5t-249 164.5t-165 249.5t-61 309.5t60.5 310t164.5 250t249.5 164t308.5 60q164 0 309 -60t249 -164t164.5 -249.5t60.5 -310.5q0 -164 -60.5 -309.5t-164.5 -249.5t-249 -164.5t-309 -60.5zM871 -49q141 0 265.5 52t214 141.5t141.5 214.5
t52 267t-52 267.5t-141 215t-214 141t-266 51.5t-265.5 -51.5t-214 -141t-141.5 -215t-52 -267.5q0 -189 88.5 -344t243 -243t341.5 -88zM1238 780h-108q-21 79 -88 127t-162 48q-128 0 -206 -87.5t-78 -237.5q0 -152 78 -241.5t206 -89.5q100 0 165 45.5t84 123.5h109
q-21 -122 -117 -194t-240 -72q-178 0 -286.5 116t-108.5 312q0 194 108 308.5t286 114.5q141 0 239 -76.5t119 -196.5z" />
    <glyph glyph-name="ordfeminine" unicode="&#xaa;" horiz-adv-x="957" 
d="M437 638q112 0 189 68.5t77 169.5v114l-250 -19q-216 -17 -216 -167q0 -75 55 -120.5t145 -45.5zM403 532q-132 0 -213.5 74t-81.5 194q0 118 84.5 186.5t243.5 78.5l265 18v83q0 87 -58.5 136t-161.5 49q-86 0 -143 -36t-69 -98h-126q13 112 105.5 177.5t236.5 65.5
q159 0 249.5 -79.5t90.5 -218.5v-609h-119v142h-12q-38 -76 -115.5 -119.5t-175.5 -43.5z" />
    <glyph glyph-name="guillemotleft" unicode="&#xab;" horiz-adv-x="1363" 
d="M344 572v-13l357 -410h-157l-359 414v6l359 414h157zM795 572v-13l357 -410h-158l-358 414v6l359 414h157z" />
    <glyph glyph-name="logicalnot" unicode="&#xac;" horiz-adv-x="1321" 
d="M1137 677v-532h-114v418h-840v114h954z" />
    <glyph glyph-name="registered" unicode="&#xae;" horiz-adv-x="1260" 
d="M630 459q-141 0 -259.5 68.5t-187 187t-68.5 260.5t68.5 260.5t187 186.5t259.5 68q106 0 201.5 -40.5t164 -109t109 -164t40.5 -201.5q0 -142 -68 -260.5t-186.5 -187t-260.5 -68.5zM630 543q181 0 306 125.5t125 306.5t-125 306t-306 125t-306 -125t-125 -306
t125 -306.5t306 -125.5zM517 729h-80v515h232q77 0 126.5 -44t49.5 -114q0 -61 -33 -100.5t-89 -51.5l145 -205h-98l-138 194h-115v-194zM517 1171v-178h130q110 0 110 91q0 41 -27.5 64t-80.5 23h-132z" />
    <glyph glyph-name="macron" unicode="&#xaf;" horiz-adv-x="986" 
d="M817 1398v-106h-648v106h648z" />
    <glyph glyph-name="degree" unicode="&#xb0;" horiz-adv-x="859" 
d="M429 841q-133 0 -221.5 90t-88.5 221q0 130 89 220.5t221 90.5t221.5 -90.5t89.5 -220.5q0 -131 -89 -221t-222 -90zM429 941q91 0 151 62t60 149q0 88 -60 149t-151 61q-90 0 -149.5 -61t-59.5 -149q0 -87 59 -149t150 -62z" />
    <glyph glyph-name="plusminus" unicode="&#xb1;" horiz-adv-x="1321" 
d="M1161 112h-1002v114h1002v-114zM718 671v-317h-115v317h-444v105h444v309h115v-309h443v-105h-443z" />
    <glyph glyph-name="two.sups" unicode="&#xb2;" horiz-adv-x="801" 
d="M98 1538q1 120 84 196t214 76q129 0 211.5 -71t82.5 -181q0 -68 -41 -136t-155 -183l-216 -220v-12h432v-105h-606v85l306 318q92 94 125 145t33 101q0 68 -49.5 113t-125.5 45q-78 0 -127 -47.5t-51 -123.5v-1h-117v1z" />
    <glyph glyph-name="three.sups" unicode="&#xb3;" horiz-adv-x="827" 
d="M298 1310v96h105q79 0 128.5 42.5t49.5 110.5q0 65 -49 106.5t-126 41.5q-76 0 -125.5 -41.5t-54.5 -109.5h-117q5 115 87 183.5t214 68.5q125 0 208.5 -66.5t83.5 -166.5q0 -78 -46.5 -134t-123.5 -71v-13q95 -7 151.5 -65.5t56.5 -149.5q0 -113 -93.5 -187.5
t-235.5 -74.5q-137 0 -227 72t-94 186h120q5 -68 61 -111t141 -43q87 0 144 46.5t57 118.5q0 75 -55.5 118t-152.5 43h-107z" />
    <glyph glyph-name="acute" unicode="&#xb4;" horiz-adv-x="999" 
d="M422 1267h-149l250 327h168z" />
    <glyph glyph-name="mugreek" unicode="&#x3bc;" horiz-adv-x="1255" 
d="M172 -357v1434h131v-663q0 -153 71 -232.5t206 -79.5q142 0 227 91.5t85 243.5v640h131v-834q0 -76 24 -106.5t81 -30.5q26 0 54 6v-112q-33 -10 -78 -10q-100 0 -147 40t-58 135l-1 28h-13q-85 -211 -310 -211q-95 0 -163.5 41t-96.5 117h-12v-497h-131z" />
    <glyph glyph-name="mugreek" unicode="&#xb5;" horiz-adv-x="1255" 
d="M172 -357v1434h131v-663q0 -153 71 -232.5t206 -79.5q142 0 227 91.5t85 243.5v640h131v-834q0 -76 24 -106.5t81 -30.5q26 0 54 6v-112q-33 -10 -78 -10q-100 0 -147 40t-58 135l-1 28h-13q-85 -211 -310 -211q-95 0 -163.5 41t-96.5 117h-12v-497h-131z" />
    <glyph glyph-name="paragraph" unicode="&#xb6;" horiz-adv-x="1316" 
d="M826 -195h-137v770h-20q-205 0 -339.5 122t-134.5 307q0 193 133.5 316t341.5 123h156v-1638zM984 -195v1638h137v-1638h-137z" />
    <glyph glyph-name="periodcentered" unicode="&#xb7;" horiz-adv-x="630" 
d="M315 626q-46 0 -79 33t-33 79t33 79.5t79 33.5t79 -33t33 -80q0 -46 -33 -79t-79 -33z" />
    <glyph glyph-name="cedilla" unicode="&#xb8;" horiz-adv-x="999" 
d="M364 -217v67l70 170h96v-20l-54 -135q100 0 156.5 -41.5t56.5 -118.5q0 -81 -63 -131.5t-168 -50.5q-78 0 -143 20v87q50 -18 127 -18q60 0 96 24t36 66q0 81 -155 81h-55z" />
    <glyph glyph-name="one.sups" unicode="&#xb9;" horiz-adv-x="625" 
d="M317 902v766h-12q-17 -11 -117.5 -81t-108.5 -75v119q169 116 238 161h119v-890h-119z" />
    <glyph glyph-name="ordmasculine" unicode="&#xba;" horiz-adv-x="1032" 
d="M516 532q-189 0 -299 124.5t-110 339.5q0 214 110.5 339t298.5 125q189 0 299.5 -124.5t110.5 -339.5t-110.5 -339.5t-299.5 -124.5zM516 644q130 0 204 93t74 259q0 167 -74 260t-204 93q-129 0 -203 -93.5t-74 -259.5t74 -259t203 -93z" />
    <glyph glyph-name="guillemotright" unicode="&#xbb;" horiz-adv-x="1363" 
d="M568 572l-357 411h157l359 -414v-6l-358 -414h-158l357 410v13zM1019 572l-357 411h157l359 -414v-6l-359 -414h-157l357 410v13z" />
    <glyph glyph-name="onequarter" unicode="&#xbc;" horiz-adv-x="1945" 
d="M317 553v766h-12q-17 -11 -117.5 -81t-108.5 -75v119q169 116 238 161h119v-890h-119zM642 0h-128l332 751l305 692h128l-318 -721zM1592 0v186h-456v108q95 161 400 596h176v-602h128v-102h-128v-186h-120zM1253 292v-7h341v505h-5q-234 -326 -336 -498z" />
    <glyph glyph-name="onehalf" unicode="&#xbd;" horiz-adv-x="1945" 
d="M317 553v766h-12q-17 -11 -117.5 -81t-108.5 -75v119q169 116 238 161h119v-890h-119zM642 0h-128l332 751l305 692h128l-318 -721zM1222 636q1 120 84 196t214 76q129 0 211.5 -71t82.5 -181q0 -68 -41 -136t-155 -183l-216 -220v-12h432v-105h-606v85l306 318
q92 94 125 145t33 101q0 68 -49.5 113t-125.5 45q-78 0 -127 -47.5t-51 -123.5v-1h-117v1z" />
    <glyph glyph-name="threequarters" unicode="&#xbe;" horiz-adv-x="2134" 
d="M298 961v96h105q79 0 128.5 42.5t49.5 110.5q0 65 -49 106.5t-126 41.5q-76 0 -125.5 -41.5t-54.5 -109.5h-117q5 115 87 183.5t214 68.5q125 0 208.5 -66.5t83.5 -166.5q0 -78 -46.5 -134t-123.5 -71v-13q95 -7 151.5 -65.5t56.5 -149.5q0 -113 -93.5 -187.5
t-235.5 -74.5q-137 0 -227 72t-94 186h120q5 -68 61 -111t141 -43q87 0 144 46.5t57 118.5q0 75 -55.5 118t-152.5 43h-107zM832 0h-128l332 751l305 692h128l-318 -721zM1782 0v186h-456v108q95 161 400 596h176v-602h128v-102h-128v-186h-120zM1443 292v-7h341v505h-5
q-234 -326 -336 -498z" />
    <glyph glyph-name="questiondown" unicode="&#xbf;" horiz-adv-x="1019" 
d="M938 21q-9 -165 -120.5 -271.5t-298.5 -106.5q-180 0 -295 102.5t-115 257.5q0 108 52.5 190t157.5 150q98 62 133 114.5t35 136.5v76h133v-95q1 -98 -44.5 -168t-152.5 -139q-94 -61 -133.5 -120t-39.5 -139q0 -108 76.5 -177.5t197.5 -69.5q120 0 197 70t87 189h130z
M543 894q-49 0 -80.5 31.5t-31.5 80.5q0 48 32 80.5t80 32.5t79.5 -32.5t31.5 -80.5q0 -49 -31 -80.5t-80 -31.5z" />
    <glyph glyph-name="Agrave" unicode="&#xc0;" horiz-adv-x="1363" 
d="M1145 0l-160 442h-606l-160 -442h-145l540 1443h136l539 -1443h-144zM675 1264l-255 -704h524l-256 704h-13zM609 1577l-326 297h174l309 -297h-157z" />
    <glyph glyph-name="Aacute" unicode="&#xc1;" horiz-adv-x="1363" 
d="M1145 0l-160 442h-606l-160 -442h-145l540 1443h136l539 -1443h-144zM675 1264l-255 -704h524l-256 704h-13zM753 1577h-158l310 297h174z" />
    <glyph glyph-name="Acircumflex" unicode="&#xc2;" horiz-adv-x="1363" 
d="M1145 0l-160 442h-606l-160 -442h-145l540 1443h136l539 -1443h-144zM675 1264l-255 -704h524l-256 704h-13zM620 1874h124l289 -297h-155l-190 202h-12l-190 -202h-155z" />
    <glyph glyph-name="Atilde" unicode="&#xc3;" horiz-adv-x="1363" 
d="M1145 0l-160 442h-606l-160 -442h-145l540 1443h136l539 -1443h-144zM675 1264l-255 -704h524l-256 704h-13zM823 1580q-42 0 -78.5 16.5t-60.5 39.5t-46 46t-45.5 39.5t-47.5 16.5q-104 0 -104 -158h-111q0 121 56 191.5t153 70.5q43 0 79 -16.5t60.5 -39.5t46.5 -46
t45.5 -39.5t47.5 -16.5q104 0 104 158h110q0 -121 -56 -191.5t-153 -70.5z" />
    <glyph glyph-name="Adieresis" unicode="&#xc4;" horiz-adv-x="1363" 
d="M1145 0l-160 442h-606l-160 -442h-145l540 1443h136l539 -1443h-144zM675 1264l-255 -704h524l-256 704h-13zM500 1568q-42 0 -72 29.5t-30 72.5t30 72.5t72 29.5q43 0 72.5 -29.5t29.5 -72.5t-29.5 -72.5t-72.5 -29.5zM864 1568q-42 0 -72 29.5t-30 72.5t30 72.5
t72 29.5q43 0 72.5 -29.5t29.5 -72.5t-29.5 -72.5t-72.5 -29.5z" />
    <glyph glyph-name="Aring" unicode="&#xc5;" horiz-adv-x="1363" 
d="M1145 0l-160 442h-606l-160 -442h-145l540 1443h136l539 -1443h-144zM675 1264l-255 -704h524l-256 704h-13zM682 1556q-79 0 -134.5 55t-55.5 134t55.5 133.5t134.5 54.5t134.5 -54.5t55.5 -133.5t-55.5 -134t-134.5 -55zM682 1632q48 0 80.5 32.5t32.5 80.5t-32 80.5
t-81 32.5t-81 -32.5t-32 -80.5t32 -80.5t81 -32.5z" />
    <glyph glyph-name="AE" unicode="&#xc6;" horiz-adv-x="1955" 
d="M841 1327l-365 -766h526v766h-161zM1002 0v443h-581l-208 -443h-139l678 1443h1063v-124h-677v-526h640v-122h-640v-547h677v-124h-813z" />
    <glyph glyph-name="Ccedilla" unicode="&#xc7;" horiz-adv-x="1455" 
d="M1338 1002h-139q-31 153 -152.5 248.5t-284.5 95.5q-227 0 -361 -169.5t-134 -455.5q0 -287 134 -455.5t362 -168.5q167 0 286.5 86t149.5 228h139q-29 -188 -172.5 -307.5t-355.5 -132.5l-43 -106q100 0 156.5 -41.5t56.5 -118.5q0 -81 -63 -131.5t-168 -50.5
q-78 0 -143 20v87q50 -18 127 -18q60 0 96 24t36 66q0 81 -155 81h-55v67l50 122q-269 20 -423.5 220t-154.5 529q0 347 171 549.5t464 202.5q147 0 271.5 -60.5t205 -168t99.5 -242.5z" />
    <glyph glyph-name="Egrave" unicode="&#xc8;" horiz-adv-x="1197" 
d="M1057 124v-124h-872v1443h872v-124h-735v-519h698v-122h-698v-554h735zM548 1577l-326 297h174l309 -297h-157z" />
    <glyph glyph-name="Eacute" unicode="&#xc9;" horiz-adv-x="1197" 
d="M1057 124v-124h-872v1443h872v-124h-735v-519h698v-122h-698v-554h735zM692 1577h-158l310 297h174z" />
    <glyph glyph-name="Ecircumflex" unicode="&#xca;" horiz-adv-x="1197" 
d="M1057 124v-124h-872v1443h872v-124h-735v-519h698v-122h-698v-554h735zM559 1874h124l289 -297h-155l-190 202h-12l-190 -202h-155z" />
    <glyph glyph-name="Edieresis" unicode="&#xcb;" horiz-adv-x="1197" 
d="M1057 124v-124h-872v1443h872v-124h-735v-519h698v-122h-698v-554h735zM439 1568q-42 0 -72 29.5t-30 72.5t30 72.5t72 29.5q43 0 72.5 -29.5t29.5 -72.5t-29.5 -72.5t-72.5 -29.5zM803 1568q-42 0 -72 29.5t-30 72.5t30 72.5t72 29.5q43 0 72.5 -29.5t29.5 -72.5
t-29.5 -72.5t-72.5 -29.5z" />
    <glyph glyph-name="Igrave" unicode="&#xcc;" horiz-adv-x="507" 
d="M322 0h-137v1443h137v-1443zM181 1577l-326 297h174l309 -297h-157z" />
    <glyph glyph-name="Iacute" unicode="&#xcd;" horiz-adv-x="507" 
d="M322 0h-137v1443h137v-1443zM325 1577h-158l310 297h174z" />
    <glyph glyph-name="Icircumflex" unicode="&#xce;" horiz-adv-x="507" 
d="M322 0h-137v1443h137v-1443zM192 1874h124l289 -297h-155l-190 202h-12l-190 -202h-155z" />
    <glyph glyph-name="Idieresis" unicode="&#xcf;" horiz-adv-x="507" 
d="M322 0h-137v1443h137v-1443zM72 1568q-42 0 -72 29.5t-30 72.5t30 72.5t72 29.5q43 0 72.5 -29.5t29.5 -72.5t-29.5 -72.5t-72.5 -29.5zM436 1568q-42 0 -72 29.5t-30 72.5t30 72.5t72 29.5q43 0 72.5 -29.5t29.5 -72.5t-29.5 -72.5t-72.5 -29.5z" />
    <glyph glyph-name="Eth" unicode="&#xd0;" horiz-adv-x="1471" 
d="M322 124h330q263 0 408 158t145 439t-145 439.5t-408 158.5h-330v-514h272v-124h-272v-557zM185 1443h475q327 0 506 -191t179 -530q0 -340 -178.5 -531t-506.5 -191h-475v681h-163v124h163v638z" />
    <glyph glyph-name="Ntilde" unicode="&#xd1;" horiz-adv-x="1494" 
d="M320 0h-135v1443h135l841 -1198h13v1198h135v-1443h-132l-844 1199h-13v-1199zM888 1580q-42 0 -78.5 16.5t-60.5 39.5t-46 46t-45.5 39.5t-47.5 16.5q-104 0 -104 -158h-111q0 121 56 191.5t153 70.5q43 0 79 -16.5t60.5 -39.5t46.5 -46t45.5 -39.5t47.5 -16.5
q104 0 104 158h110q0 -121 -56 -191.5t-153 -70.5z" />
    <glyph glyph-name="Ograve" unicode="&#xd2;" horiz-adv-x="1561" 
d="M781 1473q303 0 477.5 -202t174.5 -549t-174.5 -549.5t-477.5 -202.5q-304 0 -479 202.5t-175 549.5q0 346 176 548.5t478 202.5zM781 1346q-236 0 -375 -168.5t-139 -455.5q0 -286 138 -455.5t376 -169.5q237 0 374.5 169.5t137.5 455.5q0 287 -137.5 455.5
t-374.5 168.5zM708 1577l-326 297h174l309 -297h-157z" />
    <glyph glyph-name="Oacute" unicode="&#xd3;" horiz-adv-x="1561" 
d="M781 1473q303 0 477.5 -202t174.5 -549t-174.5 -549.5t-477.5 -202.5q-304 0 -479 202.5t-175 549.5q0 346 176 548.5t478 202.5zM781 1346q-236 0 -375 -168.5t-139 -455.5q0 -286 138 -455.5t376 -169.5q237 0 374.5 169.5t137.5 455.5q0 287 -137.5 455.5
t-374.5 168.5zM852 1577h-158l310 297h174z" />
    <glyph glyph-name="Ocircumflex" unicode="&#xd4;" horiz-adv-x="1561" 
d="M781 1473q303 0 477.5 -202t174.5 -549t-174.5 -549.5t-477.5 -202.5q-304 0 -479 202.5t-175 549.5q0 346 176 548.5t478 202.5zM781 1346q-236 0 -375 -168.5t-139 -455.5q0 -286 138 -455.5t376 -169.5q237 0 374.5 169.5t137.5 455.5q0 287 -137.5 455.5
t-374.5 168.5zM719 1874h124l289 -297h-155l-190 202h-12l-190 -202h-155z" />
    <glyph glyph-name="Otilde" unicode="&#xd5;" horiz-adv-x="1561" 
d="M781 1473q303 0 477.5 -202t174.5 -549t-174.5 -549.5t-477.5 -202.5q-304 0 -479 202.5t-175 549.5q0 346 176 548.5t478 202.5zM781 1346q-236 0 -375 -168.5t-139 -455.5q0 -286 138 -455.5t376 -169.5q237 0 374.5 169.5t137.5 455.5q0 287 -137.5 455.5
t-374.5 168.5zM922 1580q-42 0 -78.5 16.5t-60.5 39.5t-46 46t-45.5 39.5t-47.5 16.5q-104 0 -104 -158h-111q0 121 56 191.5t153 70.5q43 0 79 -16.5t60.5 -39.5t46.5 -46t45.5 -39.5t47.5 -16.5q104 0 104 158h110q0 -121 -56 -191.5t-153 -70.5z" />
    <glyph glyph-name="Odieresis" unicode="&#xd6;" horiz-adv-x="1561" 
d="M781 1473q303 0 477.5 -202t174.5 -549t-174.5 -549.5t-477.5 -202.5q-304 0 -479 202.5t-175 549.5q0 346 176 548.5t478 202.5zM781 1346q-236 0 -375 -168.5t-139 -455.5q0 -286 138 -455.5t376 -169.5q237 0 374.5 169.5t137.5 455.5q0 287 -137.5 455.5
t-374.5 168.5zM599 1568q-42 0 -72 29.5t-30 72.5t30 72.5t72 29.5q43 0 72.5 -29.5t29.5 -72.5t-29.5 -72.5t-72.5 -29.5zM963 1568q-42 0 -72 29.5t-30 72.5t30 72.5t72 29.5q43 0 72.5 -29.5t29.5 -72.5t-29.5 -72.5t-72.5 -29.5z" />
    <glyph glyph-name="multiply" unicode="&#xd7;" horiz-adv-x="1321" 
d="M661 499l-315 -314l-80 80l313 315l-313 314l80 81l314 -314l314 313l81 -80l-313 -314l313 -314l-81 -81z" />
    <glyph glyph-name="Oslash" unicode="&#xd8;" horiz-adv-x="1530" 
d="M1164 1167l-722 -941q134 -129 339 -129q237 0 374.5 169.5t137.5 455.5q0 277 -129 445zM378 302l719 935q-127 109 -316 109q-236 0 -375 -168.5t-139 -455.5q0 -255 111 -420zM1386 1457l-136 -177q183 -202 183 -558q0 -347 -174.5 -549.5t-477.5 -202.5
q-254 0 -423 146l-142 -186l-79 59l152 198q-162 201 -162 535q0 346 176 548.5t478 202.5q236 0 399 -127l128 166z" />
    <glyph glyph-name="Ugrave" unicode="&#xd9;" horiz-adv-x="1494" 
d="M325 1443v-934q0 -183 114 -296t308 -113t308 113t114 296v934h137v-943q0 -237 -151 -381.5t-408 -144.5q-256 0 -407 144.5t-151 381.5v943h136zM674 1577l-326 297h174l309 -297h-157z" />
    <glyph glyph-name="Uacute" unicode="&#xda;" horiz-adv-x="1494" 
d="M325 1443v-934q0 -183 114 -296t308 -113t308 113t114 296v934h137v-943q0 -237 -151 -381.5t-408 -144.5q-256 0 -407 144.5t-151 381.5v943h136zM818 1577h-158l310 297h174z" />
    <glyph glyph-name="Ucircumflex" unicode="&#xdb;" horiz-adv-x="1494" 
d="M325 1443v-934q0 -183 114 -296t308 -113t308 113t114 296v934h137v-943q0 -237 -151 -381.5t-408 -144.5q-256 0 -407 144.5t-151 381.5v943h136zM685 1874h124l289 -297h-155l-190 202h-12l-190 -202h-155z" />
    <glyph glyph-name="Udieresis" unicode="&#xdc;" horiz-adv-x="1494" 
d="M325 1443v-934q0 -183 114 -296t308 -113t308 113t114 296v934h137v-943q0 -237 -151 -381.5t-408 -144.5q-256 0 -407 144.5t-151 381.5v943h136zM565 1568q-42 0 -72 29.5t-30 72.5t30 72.5t72 29.5q43 0 72.5 -29.5t29.5 -72.5t-29.5 -72.5t-72.5 -29.5zM929 1568
q-42 0 -72 29.5t-30 72.5t30 72.5t72 29.5q43 0 72.5 -29.5t29.5 -72.5t-29.5 -72.5t-72.5 -29.5z" />
    <glyph glyph-name="Yacute" unicode="&#xdd;" horiz-adv-x="1321" 
d="M729 0h-136v624l-518 819h157l423 -680h12l423 680h156l-517 -819v-624zM732 1577h-158l310 297h174z" />
    <glyph glyph-name="Thorn" unicode="&#xde;" horiz-adv-x="1270" 
d="M185 1443h137v-274h386q184 0 307.5 -111t123.5 -299q0 -126 -58.5 -220.5t-156 -142.5t-217.5 -48h-385v-348h-137v1443zM322 1046v-576h352q149 0 237 75.5t88 213.5q0 137 -88 212t-237 75h-352z" />
    <glyph glyph-name="germandbls" unicode="&#xdf;" horiz-adv-x="1229" 
d="M341 0h-130v1101q0 181 109.5 286.5t292.5 105.5q177 0 289 -102.5t112 -262.5q0 -123 -67 -216.5t-169 -123.5v-13q156 -15 252 -114t96 -260q0 -179 -126.5 -298t-324.5 -119q-86 0 -155 14v119q61 -16 147 -16q148 0 238.5 84t90.5 217q0 137 -100 220t-274 83h-77
v129h70q120 0 195 77.5t75 209.5q0 111 -74 183t-196 72q-130 0 -202 -76.5t-72 -212.5v-1087z" />
    <glyph glyph-name="agrave" unicode="&#xe0;" horiz-adv-x="1125" 
d="M491 98q145 0 242.5 87.5t97.5 215.5v126l-319 -23q-271 -19 -271 -204q0 -92 70 -147t180 -55zM469 -18q-160 0 -261.5 86.5t-101.5 229.5q0 140 100 220.5t288 93.5l337 22v104q0 116 -68.5 178t-199.5 62q-111 0 -186.5 -44.5t-94.5 -122.5h-133q19 128 133.5 206
t284.5 78q189 0 292.5 -93.5t103.5 -262.5v-739h-126v185h-12q-49 -96 -143 -149.5t-213 -53.5zM664 1267h-149l-269 327h168z" />
    <glyph glyph-name="aacute" unicode="&#xe1;" horiz-adv-x="1125" 
d="M491 98q145 0 242.5 87.5t97.5 215.5v126l-319 -23q-271 -19 -271 -204q0 -92 70 -147t180 -55zM469 -18q-160 0 -261.5 86.5t-101.5 229.5q0 140 100 220.5t288 93.5l337 22v104q0 116 -68.5 178t-199.5 62q-111 0 -186.5 -44.5t-94.5 -122.5h-133q19 128 133.5 206
t284.5 78q189 0 292.5 -93.5t103.5 -262.5v-739h-126v185h-12q-49 -96 -143 -149.5t-213 -53.5zM627 1267h-149l250 327h168z" />
    <glyph glyph-name="acircumflex" unicode="&#xe2;" horiz-adv-x="1125" 
d="M491 98q145 0 242.5 87.5t97.5 215.5v126l-319 -23q-271 -19 -271 -204q0 -92 70 -147t180 -55zM469 -18q-160 0 -261.5 86.5t-101.5 229.5q0 140 100 220.5t288 93.5l337 22v104q0 116 -68.5 178t-199.5 62q-111 0 -186.5 -44.5t-94.5 -122.5h-133q19 128 133.5 206
t284.5 78q189 0 292.5 -93.5t103.5 -262.5v-739h-126v185h-12q-49 -96 -143 -149.5t-213 -53.5zM644 1560l275 -332h-153l-193 243h-12l-193 -243h-153l275 332h154z" />
    <glyph glyph-name="atilde" unicode="&#xe3;" horiz-adv-x="1125" 
d="M491 98q145 0 242.5 87.5t97.5 215.5v126l-319 -23q-271 -19 -271 -204q0 -92 70 -147t180 -55zM469 -18q-160 0 -261.5 86.5t-101.5 229.5q0 140 100 220.5t288 93.5l337 22v104q0 116 -68.5 178t-199.5 62q-111 0 -186.5 -44.5t-94.5 -122.5h-133q19 128 133.5 206
t284.5 78q189 0 292.5 -93.5t103.5 -262.5v-739h-126v185h-12q-49 -96 -143 -149.5t-213 -53.5zM709 1230q-42 0 -78.5 16.5t-60.5 39.5t-46 46t-45.5 39.5t-47.5 16.5q-104 0 -104 -158h-111q0 121 56 191.5t153 70.5q43 0 79 -16.5t60.5 -39.5t46.5 -46t45.5 -39.5
t47.5 -16.5q104 0 104 158h110q0 -121 -56 -191.5t-153 -70.5z" />
    <glyph glyph-name="adieresis" unicode="&#xe4;" horiz-adv-x="1125" 
d="M491 98q145 0 242.5 87.5t97.5 215.5v126l-319 -23q-271 -19 -271 -204q0 -92 70 -147t180 -55zM469 -18q-160 0 -261.5 86.5t-101.5 229.5q0 140 100 220.5t288 93.5l337 22v104q0 116 -68.5 178t-199.5 62q-111 0 -186.5 -44.5t-94.5 -122.5h-133q19 128 133.5 206
t284.5 78q189 0 292.5 -93.5t103.5 -262.5v-739h-126v185h-12q-49 -96 -143 -149.5t-213 -53.5zM385 1228q-42 0 -72 29.5t-30 72.5t30 72.5t72 29.5q43 0 72.5 -29.5t29.5 -72.5t-29.5 -72.5t-72.5 -29.5zM749 1228q-42 0 -72 29.5t-30 72.5t30 72.5t72 29.5
q43 0 72.5 -29.5t29.5 -72.5t-29.5 -72.5t-72.5 -29.5z" />
    <glyph glyph-name="aring" unicode="&#xe5;" horiz-adv-x="1125" 
d="M491 98q145 0 242.5 87.5t97.5 215.5v126l-319 -23q-271 -19 -271 -204q0 -92 70 -147t180 -55zM469 -18q-160 0 -261.5 86.5t-101.5 229.5q0 140 100 220.5t288 93.5l337 22v104q0 116 -68.5 178t-199.5 62q-111 0 -186.5 -44.5t-94.5 -122.5h-133q19 128 133.5 206
t284.5 78q189 0 292.5 -93.5t103.5 -262.5v-739h-126v185h-12q-49 -96 -143 -149.5t-213 -53.5zM567 1228q-89 0 -151 61t-62 150q0 88 62 149t151 61t151 -61t62 -149q0 -89 -62 -150t-151 -61zM567 1313q53 0 89 36.5t36 89.5t-36 89t-89 36t-89 -36t-36 -89t36 -89.5
t89 -36.5z" />
    <glyph glyph-name="ae" unicode="&#xe6;" horiz-adv-x="1880" 
d="M1314 -18q-140 0 -249.5 71.5t-154.5 191.5h-12q-48 -123 -158 -193t-260 -70q-167 0 -270.5 85.5t-103.5 227.5q0 139 99.5 218t287.5 91l338 21v113q0 116 -68.5 178t-199.5 62q-111 0 -186.5 -44.5t-94.5 -122.5h-133q19 128 133.5 206t284.5 78q135 0 228 -60.5
t123 -164.5h13q46 99 148.5 162t231.5 63q212 0 333.5 -139.5t121.5 -382.5v-58h-804v-15q5 -182 101 -291.5t253 -109.5q226 0 300 167h133q-40 -134 -155 -209t-280 -75zM1305 979q-148 0 -240.5 -97t-102.5 -260h667q-2 158 -92 257.5t-232 99.5zM497 98q142 0 238 90
t96 219v111l-321 -21q-269 -19 -269 -199q0 -91 71 -145.5t185 -54.5z" />
    <glyph glyph-name="ccedilla" unicode="&#xe7;" horiz-adv-x="1145" 
d="M1042 760h-133q-26 96 -107.5 156.5t-201.5 60.5q-161 0 -255.5 -118t-94.5 -317q0 -202 95 -321.5t255 -119.5q120 0 201.5 55t106.5 154h133q-24 -137 -126 -225t-261 -101l-48 -119q100 0 156.5 -41.5t56.5 -118.5q0 -81 -63 -131.5t-168 -50.5q-78 0 -143 20v87
q50 -18 127 -18q60 0 96 24t36 66q0 81 -155 81h-55v67l55 134q-201 18 -317.5 167.5t-116.5 390.5q0 253 131.5 403t353.5 150q180 0 298.5 -94.5t143.5 -240.5z" />
    <glyph glyph-name="egrave" unicode="&#xe8;" horiz-adv-x="1174" 
d="M595 979q-147 0 -241 -100.5t-103 -266.5h671q-2 167 -91.5 267t-235.5 100zM909 266h133q-40 -132 -158 -208t-287 -76q-222 0 -352 150.5t-130 405.5q0 254 130.5 405.5t350.5 151.5q215 0 339 -143t124 -390v-58h-809v-6q5 -183 99.5 -291t250.5 -108q114 0 194 43.5
t115 123.5zM692 1267h-149l-269 327h168z" />
    <glyph glyph-name="eacute" unicode="&#xe9;" horiz-adv-x="1174" 
d="M595 979q-147 0 -241 -100.5t-103 -266.5h671q-2 167 -91.5 267t-235.5 100zM909 266h133q-40 -132 -158 -208t-287 -76q-222 0 -352 150.5t-130 405.5q0 254 130.5 405.5t350.5 151.5q215 0 339 -143t124 -390v-58h-809v-6q5 -183 99.5 -291t250.5 -108q114 0 194 43.5
t115 123.5zM655 1267h-149l250 327h168z" />
    <glyph glyph-name="ecircumflex" unicode="&#xea;" horiz-adv-x="1174" 
d="M595 979q-147 0 -241 -100.5t-103 -266.5h671q-2 167 -91.5 267t-235.5 100zM909 266h133q-40 -132 -158 -208t-287 -76q-222 0 -352 150.5t-130 405.5q0 254 130.5 405.5t350.5 151.5q215 0 339 -143t124 -390v-58h-809v-6q5 -183 99.5 -291t250.5 -108q114 0 194 43.5
t115 123.5zM672 1560l275 -332h-153l-193 243h-12l-193 -243h-153l275 332h154z" />
    <glyph glyph-name="edieresis" unicode="&#xeb;" horiz-adv-x="1174" 
d="M595 979q-147 0 -241 -100.5t-103 -266.5h671q-2 167 -91.5 267t-235.5 100zM909 266h133q-40 -132 -158 -208t-287 -76q-222 0 -352 150.5t-130 405.5q0 254 130.5 405.5t350.5 151.5q215 0 339 -143t124 -390v-58h-809v-6q5 -183 99.5 -291t250.5 -108q114 0 194 43.5
t115 123.5zM413 1228q-42 0 -72 29.5t-30 72.5t30 72.5t72 29.5q43 0 72.5 -29.5t29.5 -72.5t-29.5 -72.5t-72.5 -29.5zM777 1228q-42 0 -72 29.5t-30 72.5t30 72.5t72 29.5q43 0 72.5 -29.5t29.5 -72.5t-29.5 -72.5t-72.5 -29.5z" />
    <glyph glyph-name="igrave" unicode="&#xec;" horiz-adv-x="480" 
d="M175 0v1077h131v-1077h-131zM337 1267h-149l-269 327h168z" />
    <glyph glyph-name="iacute" unicode="&#xed;" horiz-adv-x="480" 
d="M175 0v1077h131v-1077h-131zM300 1267h-149l250 327h168z" />
    <glyph glyph-name="icircumflex" unicode="&#xee;" horiz-adv-x="480" 
d="M175 0v1077h131v-1077h-131zM317 1560l275 -332h-153l-193 243h-12l-193 -243h-153l275 332h154z" />
    <glyph glyph-name="idieresis" unicode="&#xef;" horiz-adv-x="480" 
d="M175 0v1077h131v-1077h-131zM58 1228q-42 0 -72 29.5t-30 72.5t30 72.5t72 29.5q43 0 72.5 -29.5t29.5 -72.5t-29.5 -72.5t-72.5 -29.5zM422 1228q-42 0 -72 29.5t-30 72.5t30 72.5t72 29.5q43 0 72.5 -29.5t29.5 -72.5t-29.5 -72.5t-72.5 -29.5z" />
    <glyph glyph-name="eth" unicode="&#xf0;" horiz-adv-x="1192" 
d="M601 -18q-223 0 -354.5 147.5t-131.5 395.5q0 235 126.5 382.5t329.5 147.5q112 0 207 -53t137 -140h12q-51 220 -200 393l-283 -102l-29 88l247 89q-74 78 -215 180h164q95 -66 166 -141l257 92l29 -88l-225 -81q116 -145 176.5 -330.5t60.5 -395.5q0 -269 -128 -426.5
t-346 -157.5zM599 937q-157 0 -253 -113.5t-96 -298.5q0 -191 96 -307.5t255 -116.5q157 0 252 115t95 305q0 189 -95.5 302.5t-253.5 113.5z" />
    <glyph glyph-name="ntilde" unicode="&#xf1;" horiz-adv-x="1192" 
d="M169 0v1077h125v-194h13q43 101 132 156.5t216 55.5q180 0 278.5 -103.5t98.5 -291.5v-700h-131v667q0 310 -281 310q-143 0 -231.5 -92.5t-88.5 -244.5v-640h-131zM753 1230q-42 0 -78.5 16.5t-60.5 39.5t-46 46t-45.5 39.5t-47.5 16.5q-104 0 -104 -158h-111
q0 121 56 191.5t153 70.5q43 0 79 -16.5t60.5 -39.5t46.5 -46t45.5 -39.5t47.5 -16.5q104 0 104 158h110q0 -121 -56 -191.5t-153 -70.5z" />
    <glyph glyph-name="ograve" unicode="&#xf2;" horiz-adv-x="1208" 
d="M604 -18q-226 0 -357.5 149.5t-131.5 407.5t131.5 407t357.5 149t358 -149t132 -407t-132 -407.5t-358 -149.5zM604 101q166 0 260 116.5t94 321.5t-94 321.5t-260 116.5t-260 -116.5t-94 -321.5t94 -321.5t260 -116.5zM701 1267h-149l-269 327h168z" />
    <glyph glyph-name="oacute" unicode="&#xf3;" horiz-adv-x="1208" 
d="M604 -18q-226 0 -357.5 149.5t-131.5 407.5t131.5 407t357.5 149t358 -149t132 -407t-132 -407.5t-358 -149.5zM604 101q166 0 260 116.5t94 321.5t-94 321.5t-260 116.5t-260 -116.5t-94 -321.5t94 -321.5t260 -116.5zM664 1267h-149l250 327h168z" />
    <glyph glyph-name="ocircumflex" unicode="&#xf4;" horiz-adv-x="1208" 
d="M604 -18q-226 0 -357.5 149.5t-131.5 407.5t131.5 407t357.5 149t358 -149t132 -407t-132 -407.5t-358 -149.5zM604 101q166 0 260 116.5t94 321.5t-94 321.5t-260 116.5t-260 -116.5t-94 -321.5t94 -321.5t260 -116.5zM681 1560l275 -332h-153l-193 243h-12l-193 -243
h-153l275 332h154z" />
    <glyph glyph-name="otilde" unicode="&#xf5;" horiz-adv-x="1208" 
d="M604 -18q-226 0 -357.5 149.5t-131.5 407.5t131.5 407t357.5 149t358 -149t132 -407t-132 -407.5t-358 -149.5zM604 101q166 0 260 116.5t94 321.5t-94 321.5t-260 116.5t-260 -116.5t-94 -321.5t94 -321.5t260 -116.5zM746 1230q-42 0 -78.5 16.5t-60.5 39.5t-46 46
t-45.5 39.5t-47.5 16.5q-104 0 -104 -158h-111q0 121 56 191.5t153 70.5q43 0 79 -16.5t60.5 -39.5t46.5 -46t45.5 -39.5t47.5 -16.5q104 0 104 158h110q0 -121 -56 -191.5t-153 -70.5z" />
    <glyph glyph-name="odieresis" unicode="&#xf6;" horiz-adv-x="1208" 
d="M604 -18q-226 0 -357.5 149.5t-131.5 407.5t131.5 407t357.5 149t358 -149t132 -407t-132 -407.5t-358 -149.5zM604 101q166 0 260 116.5t94 321.5t-94 321.5t-260 116.5t-260 -116.5t-94 -321.5t94 -321.5t260 -116.5zM422 1228q-42 0 -72 29.5t-30 72.5t30 72.5
t72 29.5q43 0 72.5 -29.5t29.5 -72.5t-29.5 -72.5t-72.5 -29.5zM786 1228q-42 0 -72 29.5t-30 72.5t30 72.5t72 29.5q43 0 72.5 -29.5t29.5 -72.5t-29.5 -72.5t-72.5 -29.5z" />
    <glyph glyph-name="divide" unicode="&#xf7;" horiz-adv-x="1321" 
d="M661 822q-46 0 -76.5 30.5t-30.5 76.5t30.5 76t76.5 30q45 0 75.5 -30t30.5 -76t-30.5 -76.5t-75.5 -30.5zM661 116q-46 0 -76.5 30.5t-30.5 76.5t30.5 76.5t76.5 30.5q45 0 75.5 -30.5t30.5 -76.5t-30.5 -76.5t-75.5 -30.5zM1152 523h-983v114h983v-114z" />
    <glyph glyph-name="oslash" unicode="&#xf8;" horiz-adv-x="1208" 
d="M875 847l-480 -680q86 -66 209 -66q166 0 260 116.5t94 321.5q0 193 -83 308zM327 240l480 676q-84 61 -203 61q-166 0 -260 -116.5t-94 -321.5q0 -185 77 -299zM1041 1083l-89 -126q142 -150 142 -418q0 -258 -132 -407.5t-358 -149.5q-164 0 -282 82l-85 -121l-82 55
l93 131q-133 152 -133 410t131.5 407t357.5 149q159 0 276 -77l82 116z" />
    <glyph glyph-name="ugrave" unicode="&#xf9;" horiz-adv-x="1193" 
d="M1024 1077v-1077h-125v194h-12q-41 -101 -132 -156.5t-219 -55.5q-179 0 -277.5 104.5t-98.5 290.5v700h131v-667q0 -151 70.5 -229.5t208.5 -78.5q150 0 236.5 90.5t86.5 244.5v640h131zM689 1267h-149l-269 327h168z" />
    <glyph glyph-name="uacute" unicode="&#xfa;" horiz-adv-x="1193" 
d="M1024 1077v-1077h-125v194h-12q-41 -101 -132 -156.5t-219 -55.5q-179 0 -277.5 104.5t-98.5 290.5v700h131v-667q0 -151 70.5 -229.5t208.5 -78.5q150 0 236.5 90.5t86.5 244.5v640h131zM652 1267h-149l250 327h168z" />
    <glyph glyph-name="ucircumflex" unicode="&#xfb;" horiz-adv-x="1193" 
d="M1024 1077v-1077h-125v194h-12q-41 -101 -132 -156.5t-219 -55.5q-179 0 -277.5 104.5t-98.5 290.5v700h131v-667q0 -151 70.5 -229.5t208.5 -78.5q150 0 236.5 90.5t86.5 244.5v640h131zM669 1560l275 -332h-153l-193 243h-12l-193 -243h-153l275 332h154z" />
    <glyph glyph-name="udieresis" unicode="&#xfc;" horiz-adv-x="1193" 
d="M1024 1077v-1077h-125v194h-12q-41 -101 -132 -156.5t-219 -55.5q-179 0 -277.5 104.5t-98.5 290.5v700h131v-667q0 -151 70.5 -229.5t208.5 -78.5q150 0 236.5 90.5t86.5 244.5v640h131zM410 1228q-42 0 -72 29.5t-30 72.5t30 72.5t72 29.5q43 0 72.5 -29.5t29.5 -72.5
t-29.5 -72.5t-72.5 -29.5zM774 1228q-42 0 -72 29.5t-30 72.5t30 72.5t72 29.5q43 0 72.5 -29.5t29.5 -72.5t-29.5 -72.5t-72.5 -29.5z" />
    <glyph glyph-name="yacute" unicode="&#xfd;" horiz-adv-x="1079" 
d="M245 -381q-27 0 -61 4v114q20 -4 59 -4q74 0 120 43t86 150l22 67l-404 1084h142l326 -934h12l325 934h140l-419 -1129q-72 -194 -144 -261.5t-204 -67.5zM596 1267h-149l250 327h168z" />
    <glyph glyph-name="thorn" unicode="&#xfe;" horiz-adv-x="1252" 
d="M685 1095q205 0 329 -152.5t124 -403.5t-124.5 -404t-328.5 -153q-125 0 -221.5 59.5t-141.5 163.5h-12v-576h-131v1867h125v-639h12q50 111 148 174.5t221 63.5zM656 101q160 0 253.5 118t93.5 319q0 202 -93.5 320.5t-252.5 118.5q-158 0 -254.5 -120t-96.5 -318
t96 -318t254 -120z" />
    <glyph glyph-name="ydieresis" unicode="&#xff;" horiz-adv-x="1079" 
d="M245 -381q-27 0 -61 4v114q20 -4 59 -4q74 0 120 43t86 150l22 67l-404 1084h142l326 -934h12l325 934h140l-419 -1129q-72 -194 -144 -261.5t-204 -67.5zM354 1228q-42 0 -72 29.5t-30 72.5t30 72.5t72 29.5q43 0 72.5 -29.5t29.5 -72.5t-29.5 -72.5t-72.5 -29.5z
M718 1228q-42 0 -72 29.5t-30 72.5t30 72.5t72 29.5q43 0 72.5 -29.5t29.5 -72.5t-29.5 -72.5t-72.5 -29.5z" />
    <glyph glyph-name="Amacron" unicode="&#x100;" horiz-adv-x="1363" 
d="M1145 0l-160 442h-606l-160 -442h-145l540 1443h136l539 -1443h-144zM675 1264l-255 -704h524l-256 704h-13zM1004 1724v-105h-644v105h644z" />
    <glyph glyph-name="amacron" unicode="&#x101;" horiz-adv-x="1125" 
d="M491 98q145 0 242.5 87.5t97.5 215.5v126l-319 -23q-271 -19 -271 -204q0 -92 70 -147t180 -55zM469 -18q-160 0 -261.5 86.5t-101.5 229.5q0 140 100 220.5t288 93.5l337 22v104q0 116 -68.5 178t-199.5 62q-111 0 -186.5 -44.5t-94.5 -122.5h-133q19 128 133.5 206
t284.5 78q189 0 292.5 -93.5t103.5 -262.5v-739h-126v185h-12q-49 -96 -143 -149.5t-213 -53.5zM891 1398v-106h-648v106h648z" />
    <glyph glyph-name="Abreve" unicode="&#x102;" horiz-adv-x="1363" 
d="M1145 0l-160 442h-606l-160 -442h-145l540 1443h136l539 -1443h-144zM675 1264l-255 -704h524l-256 704h-13zM352 1851h118q0 -81 57.5 -128.5t154.5 -47.5t154.5 47.5t57.5 128.5h118q0 -126 -89 -200t-241 -74t-241 74t-89 200z" />
    <glyph glyph-name="abreve" unicode="&#x103;" horiz-adv-x="1125" 
d="M491 98q145 0 242.5 87.5t97.5 215.5v126l-319 -23q-271 -19 -271 -204q0 -92 70 -147t180 -55zM469 -18q-160 0 -261.5 86.5t-101.5 229.5q0 140 100 220.5t288 93.5l337 22v104q0 116 -68.5 178t-199.5 62q-111 0 -186.5 -44.5t-94.5 -122.5h-133q19 128 133.5 206
t284.5 78q189 0 292.5 -93.5t103.5 -262.5v-739h-126v185h-12q-49 -96 -143 -149.5t-213 -53.5zM236 1538h119q0 -90 55.5 -144t155.5 -54t155.5 54t55.5 144h119q0 -134 -88.5 -216t-241.5 -82t-241.5 82t-88.5 216z" />
    <glyph glyph-name="Aogonek" unicode="&#x104;" horiz-adv-x="1363" 
d="M675 1264l-255 -704h524l-256 704h-13zM1271 -402q-40 -14 -93 -14q-100 0 -163 55t-63 137q0 72 51 134t138 100l-156 432h-606l-160 -442h-145l540 1443h136l539 -1443l-9 -4q-199 -81 -199 -193q0 -49 35.5 -78.5t87.5 -29.5q46 0 67 7v-104z" />
    <glyph glyph-name="aogonek" unicode="&#x105;" horiz-adv-x="1125" 
d="M491 98q144 0 242 87t98 216v126l-319 -23q-271 -19 -271 -204q0 -91 69 -146.5t181 -55.5zM957 -402q-40 -14 -93 -14q-100 0 -163.5 54t-63.5 138q0 79 55 141.5t145 96.5v171h-12q-49 -96 -143 -149.5t-213 -53.5q-162 0 -262.5 87t-100.5 229q0 140 100 220.5
t288 93.5l337 22v104q0 116 -69 178t-199 62q-112 0 -186.5 -44.5t-94.5 -122.5h-133q19 128 133.5 206t284.5 78q188 0 292 -93.5t104 -262.5v-739l-11 -4q-186 -79 -186 -193q0 -47 34.5 -77.5t89.5 -30.5q42 0 67 7v-104z" />
    <glyph glyph-name="Cacute" unicode="&#x106;" horiz-adv-x="1455" 
d="M763 -30q-294 0 -465 202t-171 549t171 549.5t464 202.5q147 0 271.5 -60.5t205 -168t99.5 -242.5h-139q-31 153 -152.5 248.5t-284.5 95.5q-227 0 -361 -169.5t-134 -455.5q0 -287 134 -455.5t362 -168.5q167 0 286.5 86t149.5 228h139q-31 -199 -188.5 -320
t-386.5 -121zM833 1578h-158l310 297h174z" />
    <glyph glyph-name="cacute" unicode="&#x107;" horiz-adv-x="1145" 
d="M1042 760h-133q-26 96 -107.5 156.5t-201.5 60.5q-161 0 -255.5 -118t-94.5 -317q0 -202 95 -321.5t255 -119.5q120 0 201.5 55t106.5 154h133q-25 -148 -142 -238t-298 -90q-223 0 -354.5 151.5t-131.5 408.5q0 253 131.5 403t353.5 150q180 0 298.5 -94.5t143.5 -240.5
zM658 1267h-149l250 327h168z" />
    <glyph glyph-name="Ccircumflex" unicode="&#x108;" horiz-adv-x="1455" 
d="M763 -30q-294 0 -465 202t-171 549t171 549.5t464 202.5q147 0 271.5 -60.5t205 -168t99.5 -242.5h-139q-31 153 -152.5 248.5t-284.5 95.5q-227 0 -361 -169.5t-134 -455.5q0 -287 134 -455.5t362 -168.5q167 0 286.5 86t149.5 228h139q-31 -199 -188.5 -320
t-386.5 -121zM700 1875h124l289 -297h-155l-190 202h-12l-190 -202h-155z" />
    <glyph glyph-name="ccircumflex" unicode="&#x109;" horiz-adv-x="1145" 
d="M1042 760h-133q-26 96 -107.5 156.5t-201.5 60.5q-161 0 -255.5 -118t-94.5 -317q0 -202 95 -321.5t255 -119.5q120 0 201.5 55t106.5 154h133q-25 -148 -142 -238t-298 -90q-223 0 -354.5 151.5t-131.5 408.5q0 253 131.5 403t353.5 150q180 0 298.5 -94.5t143.5 -240.5
zM675 1560l275 -332h-153l-193 243h-12l-193 -243h-153l275 332h154z" />
    <glyph glyph-name="Cdotaccent" unicode="&#x10a;" horiz-adv-x="1455" 
d="M763 -30q-294 0 -465 202t-171 549t171 549.5t464 202.5q147 0 271.5 -60.5t205 -168t99.5 -242.5h-139q-31 153 -152.5 248.5t-284.5 95.5q-227 0 -361 -169.5t-134 -455.5q0 -287 134 -455.5t362 -168.5q167 0 286.5 86t149.5 228h139q-31 -199 -188.5 -320
t-386.5 -121zM762 1578q-44 0 -74.5 30.5t-30.5 73.5q0 44 30.5 74.5t74.5 30.5t74.5 -30.5t30.5 -74.5q0 -43 -30.5 -73.5t-74.5 -30.5z" />
    <glyph glyph-name="cdotaccent" unicode="&#x10b;" horiz-adv-x="1145" 
d="M1042 760h-133q-26 96 -107.5 156.5t-201.5 60.5q-161 0 -255.5 -118t-94.5 -317q0 -202 95 -321.5t255 -119.5q120 0 201.5 55t106.5 154h133q-25 -148 -142 -238t-298 -90q-223 0 -354.5 151.5t-131.5 408.5q0 253 131.5 403t353.5 150q180 0 298.5 -94.5t143.5 -240.5
zM598 1280q-45 0 -77 32.5t-32 77.5t32 77t77 32t77 -32t32 -77t-32 -77.5t-77 -32.5z" />
    <glyph glyph-name="Ccaron" unicode="&#x10c;" horiz-adv-x="1455" 
d="M763 -30q-294 0 -465 202t-171 549t171 549.5t464 202.5q147 0 271.5 -60.5t205 -168t99.5 -242.5h-139q-31 153 -152.5 248.5t-284.5 95.5q-227 0 -361 -169.5t-134 -455.5q0 -287 134 -455.5t362 -168.5q167 0 286.5 86t149.5 228h139q-31 -199 -188.5 -320
t-386.5 -121zM698 1578l-287 297h155l190 -203h12l190 203h155l-287 -297h-128z" />
    <glyph glyph-name="ccaron" unicode="&#x10d;" horiz-adv-x="1145" 
d="M1042 760h-133q-26 96 -107.5 156.5t-201.5 60.5q-161 0 -255.5 -118t-94.5 -317q0 -202 95 -321.5t255 -119.5q120 0 201.5 55t106.5 154h133q-25 -148 -142 -238t-298 -90q-223 0 -354.5 151.5t-131.5 408.5q0 253 131.5 403t353.5 150q180 0 298.5 -94.5t143.5 -240.5
zM675 1228h-154l-275 332h153l193 -243h12l193 243h153z" />
    <glyph glyph-name="Dcaron" unicode="&#x10e;" horiz-adv-x="1471" 
d="M185 1443h475q327 0 506 -191t179 -530q0 -340 -178.5 -531t-506.5 -191h-475v1443zM322 1319v-1195h330q263 0 408 158t145 439t-145 439.5t-408 158.5h-330zM527 1577l-287 297h155l190 -203h12l190 203h155l-287 -297h-128z" />
    <glyph glyph-name="dcaron" unicode="&#x10f;" horiz-adv-x="1345" 
d="M1223 1506h130l-38 -444h-92v444zM571 -18q-206 0 -331 152.5t-125 403.5q0 250 125.5 403.5t330.5 153.5q123 0 220 -61t143 -167h12v639h131v-1506h-126v215h-12q-48 -108 -146.5 -170.5t-221.5 -62.5zM599 977q-160 0 -254.5 -119t-94.5 -319q0 -201 94.5 -319.5
t254.5 -118.5q159 0 254 119t95 319q0 198 -95.5 318t-253.5 120z" />
    <glyph glyph-name="Dcroat" unicode="&#x110;" horiz-adv-x="1475" 
d="M325 124h330q263 0 408 158t145 439t-145 439.5t-408 158.5h-330v-514h269v-124h-269v-557zM188 1443h475q327 0 506 -191t179 -530q0 -340 -178.5 -531t-506.5 -191h-475v681h-166v124h166v638z" />
    <glyph glyph-name="dcroat" unicode="&#x111;" horiz-adv-x="1256" 
d="M599 101q159 0 254 119t95 319q0 198 -95.5 318t-253.5 120q-160 0 -254.5 -119t-94.5 -319q0 -201 94.5 -319.5t254.5 -118.5zM1226 1376v-97h-149v-1279h-126v215h-12q-48 -108 -146.5 -170.5t-221.5 -62.5q-206 0 -331 152.5t-125 403.5q0 250 125.5 403.5
t330.5 153.5q123 0 220 -61t143 -167h12v412h-273v97h273v130h131v-130h149z" />
    <glyph glyph-name="Emacron" unicode="&#x112;" horiz-adv-x="1197" 
d="M1057 124v-124h-872v1443h872v-124h-735v-519h698v-122h-698v-554h735zM943 1724v-105h-644v105h644z" />
    <glyph glyph-name="emacron" unicode="&#x113;" horiz-adv-x="1174" 
d="M595 979q-147 0 -241 -100.5t-103 -266.5h671q-2 167 -91.5 267t-235.5 100zM909 266h133q-40 -132 -158 -208t-287 -76q-222 0 -352 150.5t-130 405.5q0 254 130.5 405.5t350.5 151.5q215 0 339 -143t124 -390v-58h-809v-6q5 -183 99.5 -291t250.5 -108q114 0 194 43.5
t115 123.5zM919 1398v-106h-648v106h648z" />
    <glyph glyph-name="Ebreve" unicode="&#x114;" horiz-adv-x="1197" 
d="M1057 124v-124h-872v1443h872v-124h-735v-519h698v-122h-698v-554h735zM291 1851h118q0 -81 57.5 -128.5t154.5 -47.5t154.5 47.5t57.5 128.5h118q0 -126 -89 -200t-241 -74t-241 74t-89 200z" />
    <glyph glyph-name="ebreve" unicode="&#x115;" horiz-adv-x="1174" 
d="M595 979q-147 0 -241 -100.5t-103 -266.5h671q-2 167 -91.5 267t-235.5 100zM909 266h133q-40 -132 -158 -208t-287 -76q-222 0 -352 150.5t-130 405.5q0 254 130.5 405.5t350.5 151.5q215 0 339 -143t124 -390v-58h-809v-6q5 -183 99.5 -291t250.5 -108q114 0 194 43.5
t115 123.5zM264 1538h119q0 -90 55.5 -144t155.5 -54t155.5 54t55.5 144h119q0 -134 -88.5 -216t-241.5 -82t-241.5 82t-88.5 216z" />
    <glyph glyph-name="Edotaccent" unicode="&#x116;" horiz-adv-x="1197" 
d="M1057 124v-124h-872v1443h872v-124h-735v-519h698v-122h-698v-554h735zM621 1577q-44 0 -74.5 30.5t-30.5 73.5t31 74t74 31t74 -31t31 -74t-30.5 -73.5t-74.5 -30.5z" />
    <glyph glyph-name="edotaccent" unicode="&#x117;" horiz-adv-x="1174" 
d="M595 979q-147 0 -241 -100.5t-103 -266.5h671q-2 167 -91.5 267t-235.5 100zM909 266h133q-40 -132 -158 -208t-287 -76q-222 0 -352 150.5t-130 405.5q0 254 130.5 405.5t350.5 151.5q215 0 339 -143t124 -390v-58h-809v-6q5 -183 99.5 -291t250.5 -108q114 0 194 43.5
t115 123.5zM595 1280q-45 0 -77 32.5t-32 77.5t32 77t77 32t77 -32t32 -77t-32 -77.5t-77 -32.5z" />
    <glyph glyph-name="Eogonek" unicode="&#x118;" horiz-adv-x="1197" 
d="M185 0v1443h872v-124h-735v-519h698v-122h-698v-554h735v-115l-33 -12q-88 -32 -143.5 -82t-55.5 -112q0 -49 36 -78.5t88 -29.5q46 0 67 7v-104q-40 -14 -94 -14q-100 0 -163 55t-63 137q0 67 42 122.5t112 89.5v12h-665z" />
    <glyph glyph-name="eogonek" unicode="&#x119;" horiz-adv-x="1174" 
d="M790 -416q-100 0 -163 55t-63 137q0 125 136 212v13q-36 -19 -103 -19q-222 0 -352 150.5t-130 405.5q0 254 130.5 405.5t350.5 151.5q215 0 339 -143t124 -390v-58h-809v-6q5 -183 99.5 -291t250.5 -108q114 0 194 43.5t115 123.5h133q-14 -51 -58.5 -112.5
t-108.5 -109.5q-95 -71 -138.5 -126.5t-43.5 -114.5q0 -49 35.5 -78.5t87.5 -29.5q46 0 67 7v-104q-42 -14 -93 -14zM595 979q-147 0 -241 -100.5t-103 -266.5h671q-2 167 -91.5 267t-235.5 100z" />
    <glyph glyph-name="Ecaron" unicode="&#x11a;" horiz-adv-x="1197" 
d="M1057 124v-124h-872v1443h872v-124h-735v-519h698v-122h-698v-554h735zM557 1577l-287 297h155l190 -203h12l190 203h155l-287 -297h-128z" />
    <glyph glyph-name="ecaron" unicode="&#x11b;" horiz-adv-x="1174" 
d="M595 979q-147 0 -241 -100.5t-103 -266.5h671q-2 167 -91.5 267t-235.5 100zM909 266h133q-40 -132 -158 -208t-287 -76q-222 0 -352 150.5t-130 405.5q0 254 130.5 405.5t350.5 151.5q215 0 339 -143t124 -390v-58h-809v-6q5 -183 99.5 -291t250.5 -108q114 0 194 43.5
t115 123.5zM672 1228h-154l-275 332h153l193 -243h12l193 243h153z" />
    <glyph glyph-name="Gcircumflex" unicode="&#x11c;" horiz-adv-x="1506" 
d="M1375 559q0 -268 -164 -428.5t-438 -160.5q-293 0 -469.5 205.5t-176.5 546.5q0 339 176 545t467 206q231 0 391.5 -123t199.5 -329h-139q-45 155 -163 240t-289 85q-229 0 -366 -170t-137 -454q0 -285 137.5 -455t368.5 -170q212 0 339 123.5t127 327.5v50h-440v121h576
v-160zM708 1874h124l289 -297h-155l-190 202h-12l-190 -202h-155z" />
    <glyph glyph-name="gcircumflex" unicode="&#x11d;" horiz-adv-x="1242" 
d="M595 128q161 0 255.5 115t94.5 307q0 193 -95.5 310t-254.5 117q-160 0 -252.5 -115.5t-92.5 -309.5q0 -193 92.5 -308.5t252.5 -115.5zM606 -404q-184 0 -301 75.5t-138 202.5h139q18 -75 98 -119t202 -44q156 0 246.5 76t90.5 207v242h-13q-48 -107 -142.5 -166
t-218.5 -59q-207 0 -330.5 148.5t-123.5 392.5t124 393.5t330 149.5q123 0 223 -63t144 -168h12v213h126v-1093q0 -176 -128 -282t-340 -106zM682 1560l275 -332h-153l-193 243h-12l-193 -243h-153l275 332h154z" />
    <glyph glyph-name="Gbreve" unicode="&#x11e;" horiz-adv-x="1506" 
d="M1375 559q0 -268 -164 -428.5t-438 -160.5q-293 0 -469.5 205.5t-176.5 546.5q0 339 176 545t467 206q231 0 391.5 -123t199.5 -329h-139q-45 155 -163 240t-289 85q-229 0 -366 -170t-137 -454q0 -285 137.5 -455t368.5 -170q212 0 339 123.5t127 327.5v50h-440v121h576
v-160zM440 1851h118q0 -81 57.5 -128.5t154.5 -47.5t154.5 47.5t57.5 128.5h118q0 -126 -89 -200t-241 -74t-241 74t-89 200z" />
    <glyph glyph-name="gbreve" unicode="&#x11f;" horiz-adv-x="1242" 
d="M595 128q161 0 255.5 115t94.5 307q0 193 -95.5 310t-254.5 117q-160 0 -252.5 -115.5t-92.5 -309.5q0 -193 92.5 -308.5t252.5 -115.5zM606 -404q-184 0 -301 75.5t-138 202.5h139q18 -75 98 -119t202 -44q156 0 246.5 76t90.5 207v242h-13q-48 -107 -142.5 -166
t-218.5 -59q-207 0 -330.5 148.5t-123.5 392.5t124 393.5t330 149.5q123 0 223 -63t144 -168h12v213h126v-1093q0 -176 -128 -282t-340 -106zM274 1538h119q0 -90 55.5 -144t155.5 -54t155.5 54t55.5 144h119q0 -134 -88.5 -216t-241.5 -82t-241.5 82t-88.5 216z" />
    <glyph glyph-name="Gdotaccent" unicode="&#x120;" horiz-adv-x="1506" 
d="M1375 559q0 -268 -164 -428.5t-438 -160.5q-293 0 -469.5 205.5t-176.5 546.5q0 339 176 545t467 206q231 0 391.5 -123t199.5 -329h-139q-45 155 -163 240t-289 85q-229 0 -366 -170t-137 -454q0 -285 137.5 -455t368.5 -170q212 0 339 123.5t127 327.5v50h-440v121h576
v-160zM770 1577q-44 0 -74.5 30.5t-30.5 73.5t30.5 74t74.5 31t74.5 -31t30.5 -74t-30.5 -73.5t-74.5 -30.5z" />
    <glyph glyph-name="gdotaccent" unicode="&#x121;" horiz-adv-x="1242" 
d="M595 128q161 0 255.5 115t94.5 307q0 193 -95.5 310t-254.5 117q-160 0 -252.5 -115.5t-92.5 -309.5q0 -193 92.5 -308.5t252.5 -115.5zM606 -404q-184 0 -301 75.5t-138 202.5h139q18 -75 98 -119t202 -44q156 0 246.5 76t90.5 207v242h-13q-48 -107 -142.5 -166
t-218.5 -59q-207 0 -330.5 148.5t-123.5 392.5t124 393.5t330 149.5q123 0 223 -63t144 -168h12v213h126v-1093q0 -176 -128 -282t-340 -106zM605 1280q-45 0 -77 32.5t-32 77.5t32 77t77 32t77 -32t32 -77t-32 -77.5t-77 -32.5z" />
    <glyph glyph-name="Gcommaaccent" unicode="&#x122;" horiz-adv-x="1506" 
d="M1375 559q0 -268 -164 -428.5t-438 -160.5q-293 0 -469.5 205.5t-176.5 546.5q0 339 176 545t467 206q231 0 391.5 -123t199.5 -329h-139q-45 155 -163 240t-289 85q-229 0 -366 -170t-137 -454q0 -285 137.5 -455t368.5 -170q212 0 339 123.5t127 327.5v50h-440v121h576
v-160zM752 -506h-127l102 364h141z" />
    <glyph glyph-name="gcommaaccent" unicode="&#x123;" horiz-adv-x="1242" 
d="M595 128q161 0 255.5 115t94.5 307q0 193 -95.5 310t-254.5 117q-160 0 -252.5 -115.5t-92.5 -309.5q0 -193 92.5 -308.5t252.5 -115.5zM606 -404q-184 0 -301 75.5t-138 202.5h139q18 -75 98 -119t202 -44q156 0 246.5 76t90.5 207v242h-13q-48 -107 -142.5 -166
t-218.5 -59q-207 0 -330.5 148.5t-123.5 392.5t124 393.5t330 149.5q123 0 223 -63t144 -168h12v213h126v-1093q0 -176 -128 -282t-340 -106zM617 1647h127l-102 -364h-141z" />
    <glyph glyph-name="Hcircumflex" unicode="&#x124;" horiz-adv-x="1488" 
d="M1303 0h-137v677h-844v-677h-137v1443h137v-642h844v642h137v-1443zM682 1874h124l289 -297h-155l-190 202h-12l-190 -202h-155z" />
    <glyph glyph-name="hcircumflex" unicode="&#x125;" horiz-adv-x="1210" 
d="M179 0v1506h131v-623h12q44 101 135 156.5t219 55.5q174 0 274 -104.5t100 -290.5v-700h-131v667q0 152 -71.5 231t-206.5 79q-151 0 -241 -93.5t-90 -243.5v-640h-131zM182 1937h124l289 -297h-155l-190 202h-12l-190 -202h-155z" />
    <glyph glyph-name="Hbar" unicode="&#x126;" horiz-adv-x="1488" 
d="M1166 801v294h-844v-294h844zM1447 1206v-111h-144v-1095h-137v677h-844v-677h-137v1095h-144v111h144v237h137v-237h844v237h137v-237h144z" />
    <glyph glyph-name="hbar" unicode="&#x127;" horiz-adv-x="1210" 
d="M310 883h12q44 101 135 156.5t219 55.5q174 0 274 -104.5t100 -290.5v-700h-131v667q0 152 -71.5 231t-206.5 79q-151 0 -241 -93.5t-90 -243.5v-640h-131v1279h-149v97h149v130h131v-130h272v-97h-272v-396z" />
    <glyph glyph-name="Itilde" unicode="&#x128;" horiz-adv-x="507" 
d="M322 0h-137v1443h137v-1443zM395 1580q-42 0 -78.5 16.5t-60.5 39.5t-46 46t-45.5 39.5t-47.5 16.5q-104 0 -104 -158h-111q0 121 56 191.5t153 70.5q43 0 79 -16.5t60.5 -39.5t46.5 -46t45.5 -39.5t47.5 -16.5q104 0 104 158h110q0 -121 -56 -191.5t-153 -70.5z" />
    <glyph glyph-name="itilde" unicode="&#x129;" horiz-adv-x="480" 
d="M175 0v1077h131v-1077h-131zM382 1230q-42 0 -78.5 16.5t-60.5 39.5t-46 46t-45.5 39.5t-47.5 16.5q-104 0 -104 -158h-111q0 121 56 191.5t153 70.5q43 0 79 -16.5t60.5 -39.5t46.5 -46t45.5 -39.5t47.5 -16.5q104 0 104 158h110q0 -121 -56 -191.5t-153 -70.5z" />
    <glyph glyph-name="Imacron" unicode="&#x12a;" horiz-adv-x="507" 
d="M322 0h-137v1443h137v-1443zM576 1724v-105h-644v105h644z" />
    <glyph glyph-name="imacron" unicode="&#x12b;" horiz-adv-x="480" 
d="M175 0v1077h131v-1077h-131zM515 1398v-106h-550v106h550z" />
    <glyph glyph-name="Ibreve" unicode="&#x12c;" horiz-adv-x="507" 
d="M322 0h-137v1443h137v-1443zM-76 1851h118q0 -81 57.5 -128.5t154.5 -47.5t154.5 47.5t57.5 128.5h118q0 -126 -89 -200t-241 -74t-241 74t-89 200z" />
    <glyph glyph-name="ibreve" unicode="&#x12d;" horiz-adv-x="480" 
d="M175 0v1077h131v-1077h-131zM-91 1538h119q0 -90 55.5 -144t155.5 -54t155.5 54t55.5 144h119q0 -134 -88.5 -216t-241.5 -82t-241.5 82t-88.5 216z" />
    <glyph glyph-name="Iogonek" unicode="&#x12e;" horiz-adv-x="507" 
d="M185 6v1437h137v-1443l-5 -3q-153 -87 -153 -194q0 -47 34.5 -77.5t88.5 -30.5q43 0 68 7v-104q-40 -14 -94 -14q-99 0 -162.5 54t-63.5 138q0 70 39 129.5t111 100.5z" />
    <glyph glyph-name="iogonek" unicode="&#x12f;" horiz-adv-x="480" 
d="M240 1317q-40 0 -68.5 29t-28.5 69t28.5 68.5t68.5 28.5t69 -28.5t29 -68.5q0 -41 -29 -69.5t-69 -28.5zM175 8v1069h131v-1077l-6 -3q-152 -86 -152 -194q0 -49 35.5 -78.5t87.5 -29.5q47 0 68 7v-104q-42 -14 -94 -14q-100 0 -163 55t-63 137q0 71 40.5 131.5
t115.5 100.5z" />
    <glyph glyph-name="Idotaccent" unicode="&#x130;" horiz-adv-x="507" 
d="M322 0h-137v1443h137v-1443zM254 1577q-44 0 -74.5 30.5t-30.5 73.5t30.5 74t74.5 31t74.5 -31t30.5 -74t-30.5 -73.5t-74.5 -30.5z" />
    <glyph glyph-name="dotlessi" unicode="&#x131;" horiz-adv-x="480" 
d="M175 0v1077h131v-1077h-131z" />
    <glyph glyph-name="IJ" unicode="&#x132;" horiz-adv-x="1595" 
d="M322 0h-137v1443h137v-1443zM599 330h136q5 -103 78 -168t186 -65q131 0 202.5 78.5t71.5 222.5v1045h137v-1050q0 -197 -110 -310t-300 -113q-175 0 -287.5 100.5t-113.5 259.5z" />
    <glyph glyph-name="ij" unicode="&#x133;" horiz-adv-x="977" 
d="M175 0v1077h131v-1077h-131zM240 1317q-40 0 -68.5 29t-28.5 69t28.5 68.5t68.5 28.5t69 -28.5t29 -68.5q0 -41 -29 -69.5t-69 -28.5zM795 1077v-1145q0 -156 -74.5 -227.5t-228.5 -71.5h-24v113h21q94 0 134.5 42.5t40.5 139.5v1149h131zM729 1317q-40 0 -68.5 29
t-28.5 69t28.5 68.5t68.5 28.5t69 -28.5t29 -68.5q0 -41 -28.5 -69.5t-69.5 -28.5z" />
    <glyph glyph-name="Jcircumflex" unicode="&#x134;" horiz-adv-x="1088" 
d="M92 330h136q5 -103 78 -168t186 -65q131 0 202.5 78.5t71.5 222.5v1045h137v-1050q0 -197 -110 -310t-300 -113q-175 0 -287.5 100.5t-113.5 259.5zM773 1874h124l289 -297h-155l-190 202h-12l-190 -202h-155z" />
    <glyph glyph-name="jcircumflex" unicode="&#x135;" horiz-adv-x="480" 
d="M302 1077v-1145q0 -156 -74.5 -227.5t-228.5 -71.5h-24v113h21q94 0 134.5 42.5t40.5 139.5v1149h131zM319 1560l275 -332h-153l-193 243h-12l-193 -243h-153l275 332h154z" />
    <glyph glyph-name="Kcommaaccent" unicode="&#x136;" horiz-adv-x="1311" 
d="M322 0h-137v1443h137v-746h12l683 746h171l-578 -623l637 -820h-177l-555 725l-193 -210v-515zM616 -506h-127l102 364h141z" />
    <glyph glyph-name="kcommaaccent" unicode="&#x137;" horiz-adv-x="1092" 
d="M322 573l526 504h164l-481 -462l503 -615h-168l-434 531l-122 -113v-418h-131v1506h131v-933h12zM561 -506h-127l102 364h141z" />
    <glyph glyph-name="Lacute" unicode="&#x139;" horiz-adv-x="1139" 
d="M1044 124v-124h-859v1443h137v-1319h722zM325 1577h-158l310 297h174z" />
    <glyph glyph-name="lacute" unicode="&#x13a;" horiz-adv-x="489" 
d="M179 0v1506h131v-1506h-131zM315 1640h-158l310 297h174z" />
    <glyph glyph-name="Lcommaaccent" unicode="&#x13b;" horiz-adv-x="1139" 
d="M1044 124v-124h-859v1443h137v-1319h722zM594 -506h-127l102 364h141z" />
    <glyph glyph-name="lcommaaccent" unicode="&#x13c;" horiz-adv-x="489" 
d="M179 0v1506h131v-1506h-131zM223 -506h-127l102 364h141z" />
    <glyph glyph-name="Lcaron" unicode="&#x13d;" horiz-adv-x="1139" 
d="M550 1443h130l-36 -473h-94v473zM1044 124v-124h-859v1443h137v-1319h722z" />
    <glyph glyph-name="lcaron" unicode="&#x13e;" horiz-adv-x="578" 
d="M456 1506h130l-37 -444h-93v444zM179 0v1506h131v-1506h-131z" />
    <glyph glyph-name="Lslash" unicode="&#x141;" horiz-adv-x="1139" 
d="M322 124h722v-124h-859v727l-168 -82v111l168 82v605h137v-538l315 153v-111l-315 -153v-670z" />
    <glyph glyph-name="lslash" unicode="&#x142;" horiz-adv-x="489" 
d="M447 979v-112l-137 -72v-795h-131v727l-137 -72v113l137 71v667h131v-598z" />
    <glyph glyph-name="Nacute" unicode="&#x143;" horiz-adv-x="1494" 
d="M320 0h-135v1443h135l841 -1198h13v1198h135v-1443h-132l-844 1199h-13v-1199zM818 1577h-158l310 297h174z" />
    <glyph glyph-name="nacute" unicode="&#x144;" horiz-adv-x="1192" 
d="M169 0v1077h125v-194h13q43 101 132 156.5t216 55.5q180 0 278.5 -103.5t98.5 -291.5v-700h-131v667q0 310 -281 310q-143 0 -231.5 -92.5t-88.5 -244.5v-640h-131zM671 1267h-149l250 327h168z" />
    <glyph glyph-name="Ncommaaccent" unicode="&#x145;" horiz-adv-x="1494" 
d="M320 0h-135v1443h135l841 -1198h13v1198h135v-1443h-132l-844 1199h-13v-1199zM726 -506h-127l102 364h141z" />
    <glyph glyph-name="ncommaaccent" unicode="&#x146;" horiz-adv-x="1192" 
d="M169 0v1077h125v-194h13q43 101 132 156.5t216 55.5q180 0 278.5 -103.5t98.5 -291.5v-700h-131v667q0 310 -281 310q-143 0 -231.5 -92.5t-88.5 -244.5v-640h-131zM575 -506h-127l102 364h141z" />
    <glyph glyph-name="Ncaron" unicode="&#x147;" horiz-adv-x="1494" 
d="M320 0h-135v1443h135l841 -1198h13v1198h135v-1443h-132l-844 1199h-13v-1199zM683 1577l-287 297h155l190 -203h12l190 203h155l-287 -297h-128z" />
    <glyph glyph-name="ncaron" unicode="&#x148;" horiz-adv-x="1192" 
d="M169 0v1077h125v-194h13q43 101 132 156.5t216 55.5q180 0 278.5 -103.5t98.5 -291.5v-700h-131v667q0 310 -281 310q-143 0 -231.5 -92.5t-88.5 -244.5v-640h-131zM688 1228h-154l-275 332h153l193 -243h12l193 243h153z" />
    <glyph glyph-name="Omacron" unicode="&#x14c;" horiz-adv-x="1561" 
d="M781 1473q303 0 477.5 -202t174.5 -549t-174.5 -549.5t-477.5 -202.5q-304 0 -479 202.5t-175 549.5q0 346 176 548.5t478 202.5zM781 1346q-236 0 -375 -168.5t-139 -455.5q0 -286 138 -455.5t376 -169.5q237 0 374.5 169.5t137.5 455.5q0 287 -137.5 455.5
t-374.5 168.5zM1103 1724v-105h-644v105h644z" />
    <glyph glyph-name="omacron" unicode="&#x14d;" horiz-adv-x="1208" 
d="M604 -18q-226 0 -357.5 149.5t-131.5 407.5t131.5 407t357.5 149t358 -149t132 -407t-132 -407.5t-358 -149.5zM604 101q166 0 260 116.5t94 321.5t-94 321.5t-260 116.5t-260 -116.5t-94 -321.5t94 -321.5t260 -116.5zM928 1398v-106h-648v106h648z" />
    <glyph glyph-name="Obreve" unicode="&#x14e;" horiz-adv-x="1561" 
d="M781 1473q303 0 477.5 -202t174.5 -549t-174.5 -549.5t-477.5 -202.5q-304 0 -479 202.5t-175 549.5q0 346 176 548.5t478 202.5zM781 1346q-236 0 -375 -168.5t-139 -455.5q0 -286 138 -455.5t376 -169.5q237 0 374.5 169.5t137.5 455.5q0 287 -137.5 455.5
t-374.5 168.5zM451 1851h118q0 -81 57.5 -128.5t154.5 -47.5t154.5 47.5t57.5 128.5h118q0 -126 -89 -200t-241 -74t-241 74t-89 200z" />
    <glyph glyph-name="obreve" unicode="&#x14f;" horiz-adv-x="1208" 
d="M604 -18q-226 0 -357.5 149.5t-131.5 407.5t131.5 407t357.5 149t358 -149t132 -407t-132 -407.5t-358 -149.5zM604 101q166 0 260 116.5t94 321.5t-94 321.5t-260 116.5t-260 -116.5t-94 -321.5t94 -321.5t260 -116.5zM273 1538h119q0 -90 55.5 -144t155.5 -54t155.5 54
t55.5 144h119q0 -134 -88.5 -216t-241.5 -82t-241.5 82t-88.5 216z" />
    <glyph glyph-name="Ohungarumlaut" unicode="&#x150;" horiz-adv-x="1561" 
d="M781 1473q303 0 477.5 -202t174.5 -549t-174.5 -549.5t-477.5 -202.5q-304 0 -479 202.5t-175 549.5q0 346 176 548.5t478 202.5zM781 1346q-236 0 -375 -168.5t-139 -455.5q0 -286 138 -455.5t376 -169.5q237 0 374.5 169.5t137.5 455.5q0 287 -137.5 455.5
t-374.5 168.5zM989 1577h-158l309 297h174zM625 1577h-157l309 297h174z" />
    <glyph glyph-name="ohungarumlaut" unicode="&#x151;" horiz-adv-x="1208" 
d="M604 -18q-226 0 -357.5 149.5t-131.5 407.5t131.5 407t357.5 149t358 -149t132 -407t-132 -407.5t-358 -149.5zM604 101q166 0 260 116.5t94 321.5t-94 321.5t-260 116.5t-260 -116.5t-94 -321.5t94 -321.5t260 -116.5zM677 1264l250 330h161l-271 -330h-140zM325 1264
l250 330h161l-271 -330h-140z" />
    <glyph glyph-name="OE" unicode="&#x152;" horiz-adv-x="2321" 
d="M788 1346q-240 0 -380.5 -168t-140.5 -456q0 -289 140 -457t381 -168q234 0 370 168t136 457t-136 456.5t-370 167.5zM1309 0v302h-12q-66 -153 -207 -242.5t-316 -89.5q-299 0 -473 202.5t-174 549.5q0 345 174.5 548t472.5 203q173 0 315 -88t208 -237h12v295h872v-124
h-748v-519h711v-122h-711v-554h748v-124h-872z" />
    <glyph glyph-name="oe" unicode="&#x153;" horiz-adv-x="2018" 
d="M1442 -18q-148 0 -261.5 78t-148.5 203h-12q-35 -126 -150 -203.5t-266 -77.5q-226 0 -357.5 150t-131.5 407t131.5 407t357.5 150q148 0 260 -77t156 -208h13q44 131 153.5 207.5t252.5 76.5q214 0 339 -143.5t125 -389.5v-57h-808v-6q5 -182 99.5 -291t249.5 -109
q114 0 194.5 43.5t114.5 123.5h133q-40 -132 -158 -208t-286 -76zM1766 613q-2 164 -92.5 265t-235.5 101q-146 0 -239.5 -100t-103.5 -266h671zM250 539q0 -205 94 -321.5t260 -116.5t260 116t94 320q0 206 -94.5 323t-259.5 117q-166 0 -260 -116.5t-94 -321.5z" />
    <glyph glyph-name="Racute" unicode="&#x154;" horiz-adv-x="1309" 
d="M322 1321v-608h369q157 0 244.5 80t87.5 224q0 142 -90 223t-248 81h-363zM322 591v-591h-137v1443h517q211 0 336 -114.5t125 -307.5q0 -153 -82 -261.5t-227 -146.5l350 -613h-160l-332 591h-21h-369zM662 1577h-158l310 297h174z" />
    <glyph glyph-name="racute" unicode="&#x155;" horiz-adv-x="764" 
d="M169 0v1077h125v-177h13q27 88 110 141.5t190 53.5q64 0 101 -9v-131q-45 13 -117 13q-125 0 -208 -84.5t-83 -211.5v-672h-131zM434 1267h-149l250 327h168z" />
    <glyph glyph-name="Rcommaaccent" unicode="&#x156;" horiz-adv-x="1309" 
d="M322 1321v-608h369q157 0 244.5 80t87.5 224q0 142 -90 223t-248 81h-363zM322 591v-591h-137v1443h517q211 0 336 -114.5t125 -307.5q0 -153 -82 -261.5t-227 -146.5l350 -613h-160l-332 591h-21h-369zM579 -506h-127l102 364h141z" />
    <glyph glyph-name="rcommaaccent" unicode="&#x157;" horiz-adv-x="764" 
d="M169 0v1077h125v-177h13q27 88 110 141.5t190 53.5q64 0 101 -9v-131q-45 13 -117 13q-125 0 -208 -84.5t-83 -211.5v-672h-131zM213 -506h-127l102 364h141z" />
    <glyph glyph-name="Rcaron" unicode="&#x158;" horiz-adv-x="1309" 
d="M322 1321v-608h369q157 0 244.5 80t87.5 224q0 142 -90 223t-248 81h-363zM322 591v-591h-137v1443h517q211 0 336 -114.5t125 -307.5q0 -153 -82 -261.5t-227 -146.5l350 -613h-160l-332 591h-21h-369zM527 1577l-287 297h155l190 -203h12l190 203h155l-287 -297h-128z
" />
    <glyph glyph-name="rcaron" unicode="&#x159;" horiz-adv-x="764" 
d="M169 0v1077h125v-177h13q27 88 110 141.5t190 53.5q64 0 101 -9v-131q-45 13 -117 13q-125 0 -208 -84.5t-83 -211.5v-672h-131zM451 1228h-154l-275 332h153l193 -243h12l193 243h153z" />
    <glyph glyph-name="Sacute" unicode="&#x15a;" horiz-adv-x="1284" 
d="M115 375h138q14 -124 126.5 -202t277.5 -78q161 0 266 80t105 201q0 102 -77.5 170t-244.5 109l-165 42q-203 50 -294 139.5t-91 236.5q0 176 137.5 288t356.5 112q206 0 345 -108.5t150 -274.5h-138q-17 116 -114.5 187t-246.5 71q-155 0 -252.5 -76.5t-97.5 -194.5
q0 -94 72 -153.5t237 -100.5l143 -36q223 -55 321.5 -148.5t98.5 -247.5q0 -189 -143.5 -305t-379.5 -116q-224 0 -370.5 112t-159.5 293zM721 1577h-158l310 297h174z" />
    <glyph glyph-name="sacute" unicode="&#x15b;" horiz-adv-x="1058" 
d="M144 792q0 129 112.5 216t276.5 87q163 0 270 -75.5t125 -203.5h-129q-18 76 -89.5 121.5t-177.5 45.5q-107 0 -181.5 -53t-74.5 -133q0 -66 52 -107t162 -67l148 -35q159 -38 234 -106.5t75 -183.5q0 -138 -119 -227t-297 -89q-176 0 -290 77.5t-130 210.5h136
q22 -82 97 -129t191 -47q119 0 198 55t79 139q0 70 -51 113.5t-160 69.5l-163 39q-152 37 -223 103.5t-71 178.5zM590 1267h-149l250 327h168z" />
    <glyph glyph-name="Scircumflex" unicode="&#x15c;" horiz-adv-x="1284" 
d="M115 375h138q14 -124 126.5 -202t277.5 -78q161 0 266 80t105 201q0 102 -77.5 170t-244.5 109l-165 42q-203 50 -294 139.5t-91 236.5q0 176 137.5 288t356.5 112q206 0 345 -108.5t150 -274.5h-138q-17 116 -114.5 187t-246.5 71q-155 0 -252.5 -76.5t-97.5 -194.5
q0 -94 72 -153.5t237 -100.5l143 -36q223 -55 321.5 -148.5t98.5 -247.5q0 -189 -143.5 -305t-379.5 -116q-224 0 -370.5 112t-159.5 293zM588 1874h124l289 -297h-155l-190 202h-12l-190 -202h-155z" />
    <glyph glyph-name="scircumflex" unicode="&#x15d;" horiz-adv-x="1058" 
d="M144 792q0 129 112.5 216t276.5 87q163 0 270 -75.5t125 -203.5h-129q-18 76 -89.5 121.5t-177.5 45.5q-107 0 -181.5 -53t-74.5 -133q0 -66 52 -107t162 -67l148 -35q159 -38 234 -106.5t75 -183.5q0 -138 -119 -227t-297 -89q-176 0 -290 77.5t-130 210.5h136
q22 -82 97 -129t191 -47q119 0 198 55t79 139q0 70 -51 113.5t-160 69.5l-163 39q-152 37 -223 103.5t-71 178.5zM607 1560l275 -332h-153l-193 243h-12l-193 -243h-153l275 332h154z" />
    <glyph glyph-name="Scedilla" unicode="&#x15e;" horiz-adv-x="1284" 
d="M605 823l143 -36q223 -55 321.5 -148.5t98.5 -247.5q0 -179 -129 -293.5t-346 -126.5l-43 -106q100 0 156.5 -41.5t56.5 -118.5q0 -81 -63 -131.5t-168 -50.5q-78 0 -143 20v87q50 -18 127 -18q60 0 96 24t36 66q0 81 -155 81h-55v67l50 122q-202 15 -331.5 125
t-141.5 278h138q14 -124 126.5 -202t277.5 -78q161 0 266 80t105 201q0 102 -77.5 170t-244.5 109l-165 42q-203 50 -294 139.5t-91 236.5q0 176 137.5 288t356.5 112q206 0 345 -108.5t150 -274.5h-138q-17 116 -114.5 187t-246.5 71q-155 0 -252.5 -76.5t-97.5 -194.5
q0 -94 72 -153.5t237 -100.5z" />
    <glyph glyph-name="scedilla" unicode="&#x15f;" horiz-adv-x="1058" 
d="M490 623l148 -35q159 -38 234 -106.5t75 -183.5q0 -127 -102 -213.5t-261 -100.5l-48 -119q100 0 156.5 -41.5t56.5 -118.5q0 -81 -63 -131.5t-168 -50.5q-78 0 -143 20v87q50 -18 127 -18q60 0 96 24t36 66q0 81 -155 81h-55v67l55 134q-156 11 -254.5 87.5
t-113.5 198.5h136q22 -82 97 -129t191 -47q119 0 198 55t79 139q0 70 -51 113.5t-160 69.5l-163 39q-152 37 -223 103.5t-71 178.5q0 129 112.5 216t276.5 87q163 0 270 -75.5t125 -203.5h-129q-18 76 -89.5 121.5t-177.5 45.5q-107 0 -181.5 -53t-74.5 -133q0 -66 52 -107
t162 -67z" />
    <glyph glyph-name="Scaron" unicode="&#x160;" horiz-adv-x="1284" 
d="M115 375h138q14 -124 126.5 -202t277.5 -78q161 0 266 80t105 201q0 102 -77.5 170t-244.5 109l-165 42q-203 50 -294 139.5t-91 236.5q0 176 137.5 288t356.5 112q206 0 345 -108.5t150 -274.5h-138q-17 116 -114.5 187t-246.5 71q-155 0 -252.5 -76.5t-97.5 -194.5
q0 -94 72 -153.5t237 -100.5l143 -36q223 -55 321.5 -148.5t98.5 -247.5q0 -189 -143.5 -305t-379.5 -116q-224 0 -370.5 112t-159.5 293zM586 1577l-287 297h155l190 -203h12l190 203h155l-287 -297h-128z" />
    <glyph glyph-name="scaron" unicode="&#x161;" horiz-adv-x="1058" 
d="M144 792q0 129 112.5 216t276.5 87q163 0 270 -75.5t125 -203.5h-129q-18 76 -89.5 121.5t-177.5 45.5q-107 0 -181.5 -53t-74.5 -133q0 -66 52 -107t162 -67l148 -35q159 -38 234 -106.5t75 -183.5q0 -138 -119 -227t-297 -89q-176 0 -290 77.5t-130 210.5h136
q22 -82 97 -129t191 -47q119 0 198 55t79 139q0 70 -51 113.5t-160 69.5l-163 39q-152 37 -223 103.5t-71 178.5zM607 1228h-154l-275 332h153l193 -243h12l193 243h153z" />
    <glyph glyph-name="Tcedilla" unicode="&#x162;" horiz-adv-x="1280" 
d="M708 20v-20l-54 -135q100 0 156.5 -41.5t56.5 -118.5q0 -81 -63 -131.5t-168 -50.5q-78 0 -143 20v87q50 -18 127 -18q60 0 96 24t36 66q0 81 -155 81h-55v67l62 150h-32v1319h-484v124h1104v-124h-484v-1299z" />
    <glyph glyph-name="tcedilla" unicode="&#x163;" horiz-adv-x="724" 
d="M466 -4l-53 -131q100 0 156.5 -41.5t56.5 -118.5q0 -81 -63 -131.5t-168 -50.5q-78 0 -143 20v87q50 -18 127 -18q60 0 96 24t36 66q0 81 -155 81h-55v67l69 167q-69 27 -101 87.5t-32 163.5v698h-176v111h176v280h131v-280h249v-111h-249v-668q0 -99 40 -143.5
t131 -44.5q45 0 78 3v-112q-40 -7 -92 -7q-23 0 -59 2z" />
    <glyph glyph-name="Tcaron" unicode="&#x164;" horiz-adv-x="1280" 
d="M708 0h-136v1319h-484v124h1104v-124h-484v-1319zM576 1577l-287 297h155l190 -203h12l190 203h155l-287 -297h-128z" />
    <glyph glyph-name="tcaron" unicode="&#x165;" horiz-adv-x="724" 
d="M498 1677h130l-37 -444h-93v444zM237 1357h131v-280h249v-111h-249v-668q0 -99 40 -143.5t131 -44.5q45 0 78 3v-112q-40 -7 -92 -7q-155 0 -221.5 63.5t-66.5 210.5v698h-176v111h176v280z" />
    <glyph glyph-name="Tbar" unicode="&#x166;" horiz-adv-x="1280" 
d="M1192 1319h-484v-531h304v-110h-304v-678h-136v678h-304v110h304v531h-484v124h1104v-124z" />
    <glyph glyph-name="tbar" unicode="&#x167;" horiz-adv-x="705" 
d="M623 539h-255v-241q0 -99 40 -143.5t131 -44.5q45 0 78 3v-112q-40 -7 -92 -7q-155 0 -221.5 63.5t-66.5 210.5v271h-172v111h172v316h-176v111h176v280h131v-280h249v-111h-249v-316h255v-111z" />
    <glyph glyph-name="Utilde" unicode="&#x168;" horiz-adv-x="1494" 
d="M325 1443v-934q0 -183 114 -296t308 -113t308 113t114 296v934h137v-943q0 -237 -151 -381.5t-408 -144.5q-256 0 -407 144.5t-151 381.5v943h136zM888 1580q-42 0 -78.5 16.5t-60.5 39.5t-46 46t-45.5 39.5t-47.5 16.5q-104 0 -104 -158h-111q0 121 56 191.5t153 70.5
q43 0 79 -16.5t60.5 -39.5t46.5 -46t45.5 -39.5t47.5 -16.5q104 0 104 158h110q0 -121 -56 -191.5t-153 -70.5z" />
    <glyph glyph-name="utilde" unicode="&#x169;" horiz-adv-x="1193" 
d="M1024 1077v-1077h-125v194h-12q-41 -101 -132 -156.5t-219 -55.5q-179 0 -277.5 104.5t-98.5 290.5v700h131v-667q0 -151 70.5 -229.5t208.5 -78.5q150 0 236.5 90.5t86.5 244.5v640h131zM734 1230q-42 0 -78.5 16.5t-60.5 39.5t-46 46t-45.5 39.5t-47.5 16.5
q-104 0 -104 -158h-111q0 121 56 191.5t153 70.5q43 0 79 -16.5t60.5 -39.5t46.5 -46t45.5 -39.5t47.5 -16.5q104 0 104 158h110q0 -121 -56 -191.5t-153 -70.5z" />
    <glyph glyph-name="Umacron" unicode="&#x16a;" horiz-adv-x="1494" 
d="M325 1443v-934q0 -183 114 -296t308 -113t308 113t114 296v934h137v-943q0 -237 -151 -381.5t-408 -144.5q-256 0 -407 144.5t-151 381.5v943h136zM1069 1724v-105h-644v105h644z" />
    <glyph glyph-name="umacron" unicode="&#x16b;" horiz-adv-x="1193" 
d="M1024 1077v-1077h-125v194h-12q-41 -101 -132 -156.5t-219 -55.5q-179 0 -277.5 104.5t-98.5 290.5v700h131v-667q0 -151 70.5 -229.5t208.5 -78.5q150 0 236.5 90.5t86.5 244.5v640h131zM916 1398v-106h-648v106h648z" />
    <glyph glyph-name="Ubreve" unicode="&#x16c;" horiz-adv-x="1494" 
d="M325 1443v-934q0 -183 114 -296t308 -113t308 113t114 296v934h137v-943q0 -237 -151 -381.5t-408 -144.5q-256 0 -407 144.5t-151 381.5v943h136zM417 1851h118q0 -81 57.5 -128.5t154.5 -47.5t154.5 47.5t57.5 128.5h118q0 -126 -89 -200t-241 -74t-241 74t-89 200z
" />
    <glyph glyph-name="ubreve" unicode="&#x16d;" horiz-adv-x="1193" 
d="M1024 1077v-1077h-125v194h-12q-41 -101 -132 -156.5t-219 -55.5q-179 0 -277.5 104.5t-98.5 290.5v700h131v-667q0 -151 70.5 -229.5t208.5 -78.5q150 0 236.5 90.5t86.5 244.5v640h131zM261 1538h119q0 -90 55.5 -144t155.5 -54t155.5 54t55.5 144h119
q0 -134 -88.5 -216t-241.5 -82t-241.5 82t-88.5 216z" />
    <glyph glyph-name="Uring" unicode="&#x16e;" horiz-adv-x="1494" 
d="M325 1443v-934q0 -183 114 -296t308 -113t308 113t114 296v934h137v-943q0 -237 -151 -381.5t-408 -144.5q-256 0 -407 144.5t-151 381.5v943h136zM747 1556q-79 0 -134.5 55t-55.5 134t55.5 133.5t134.5 54.5t134.5 -54.5t55.5 -133.5t-55.5 -134t-134.5 -55zM747 1632
q48 0 80.5 32.5t32.5 80.5t-32 80.5t-81 32.5t-81 -32.5t-32 -80.5t32 -80.5t81 -32.5z" />
    <glyph glyph-name="uring" unicode="&#x16f;" horiz-adv-x="1193" 
d="M1024 1077v-1077h-125v194h-12q-41 -101 -132 -156.5t-219 -55.5q-179 0 -277.5 104.5t-98.5 290.5v700h131v-667q0 -151 70.5 -229.5t208.5 -78.5q150 0 236.5 90.5t86.5 244.5v640h131zM592 1228q-89 0 -151 61t-62 150q0 88 62 149t151 61t151 -61t62 -149
q0 -89 -62 -150t-151 -61zM592 1313q53 0 89 36.5t36 89.5t-36 89t-89 36t-89 -36t-36 -89t36 -89.5t89 -36.5z" />
    <glyph glyph-name="Uhungarumlaut" unicode="&#x170;" horiz-adv-x="1494" 
d="M325 1443v-934q0 -183 114 -296t308 -113t308 113t114 296v934h137v-943q0 -237 -151 -381.5t-408 -144.5q-256 0 -407 144.5t-151 381.5v943h136zM955 1577h-158l309 297h174zM591 1577h-157l309 297h174z" />
    <glyph glyph-name="uhungarumlaut" unicode="&#x171;" horiz-adv-x="1193" 
d="M1024 1077v-1077h-125v194h-12q-41 -101 -132 -156.5t-219 -55.5q-179 0 -277.5 104.5t-98.5 290.5v700h131v-667q0 -151 70.5 -229.5t208.5 -78.5q150 0 236.5 90.5t86.5 244.5v640h131zM665 1264l250 330h161l-271 -330h-140zM313 1264l250 330h161l-271 -330h-140z
" />
    <glyph glyph-name="Uogonek" unicode="&#x172;" horiz-adv-x="1494" 
d="M996 -416q-100 0 -163 55t-63 137q0 126 139 214v13q-63 -33 -162 -33q-253 0 -405.5 144t-152.5 383v946h136v-938q0 -185 115.5 -296.5t306.5 -111.5q192 0 307 111.5t115 296.5v938h137v-946q0 -138 -58.5 -250.5t-185.5 -218.5q-163 -127 -163 -225q0 -49 35.5 -78.5
t87.5 -29.5q46 0 67 7v-104q-40 -14 -93 -14z" />
    <glyph glyph-name="uogonek" unicode="&#x173;" horiz-adv-x="1193" 
d="M1019 -402q-40 -14 -94 -14q-99 0 -162.5 54t-63.5 138q0 79 54.5 141.5t145.5 96.5v180h-12q-41 -101 -132 -156.5t-219 -55.5q-179 0 -277.5 104.5t-98.5 290.5v700h131v-667q0 -151 70.5 -229.5t208.5 -78.5q150 0 236.5 90.5t86.5 244.5v640h131v-1077l-10 -4
q-186 -79 -186 -193q0 -47 34.5 -77.5t88.5 -30.5q42 0 68 7v-104z" />
    <glyph glyph-name="Wcircumflex" unicode="&#x174;" horiz-adv-x="1956" 
d="M973 1205l-354 -1205h-127l-397 1443h142l317 -1230h9l347 1230h136l347 -1230h9l317 1230h142l-397 -1443h-127l-354 1205h-10zM916 1874h124l289 -297h-155l-190 202h-12l-190 -202h-155z" />
    <glyph glyph-name="wcircumflex" unicode="&#x175;" horiz-adv-x="1566" 
d="M1499 1077l-307 -1077h-139l-265 894h-13l-265 -894h-138l-305 1077h133l239 -914h12l266 914h131l266 -914h12l241 914h132zM859 1560l275 -332h-153l-193 243h-12l-193 -243h-153l275 332h154z" />
    <glyph glyph-name="Ycircumflex" unicode="&#x176;" horiz-adv-x="1321" 
d="M729 0h-136v624l-518 819h157l423 -680h12l423 680h156l-517 -819v-624zM599 1874h124l289 -297h-155l-190 202h-12l-190 -202h-155z" />
    <glyph glyph-name="ycircumflex" unicode="&#x177;" horiz-adv-x="1079" 
d="M245 -381q-27 0 -61 4v114q20 -4 59 -4q74 0 120 43t86 150l22 67l-404 1084h142l326 -934h12l325 934h140l-419 -1129q-72 -194 -144 -261.5t-204 -67.5zM613 1560l275 -332h-153l-193 243h-12l-193 -243h-153l275 332h154z" />
    <glyph glyph-name="Ydieresis" unicode="&#x178;" horiz-adv-x="1321" 
d="M729 0h-136v624l-518 819h157l423 -680h12l423 680h156l-517 -819v-624zM479 1568q-42 0 -72 29.5t-30 72.5t30 72.5t72 29.5q43 0 72.5 -29.5t29.5 -72.5t-29.5 -72.5t-72.5 -29.5zM843 1568q-42 0 -72 29.5t-30 72.5t30 72.5t72 29.5q43 0 72.5 -29.5t29.5 -72.5
t-29.5 -72.5t-72.5 -29.5z" />
    <glyph glyph-name="Zacute" unicode="&#x179;" horiz-adv-x="1328" 
d="M138 0v99l863 1208v12h-834v124h1011v-100l-860 -1207v-12h872v-124h-1052zM735 1577h-158l310 297h174z" />
    <glyph glyph-name="zacute" unicode="&#x17a;" horiz-adv-x="1082" 
d="M131 0v100l660 854v12h-659v111h816v-101l-658 -853v-12h660v-111h-819zM596 1267h-149l250 327h168z" />
    <glyph glyph-name="Zdotaccent" unicode="&#x17b;" horiz-adv-x="1328" 
d="M138 0v99l863 1208v12h-834v124h1011v-100l-860 -1207v-12h872v-124h-1052zM664 1577q-44 0 -74.5 30.5t-30.5 73.5t30.5 74t74.5 31t74.5 -31t30.5 -74t-30.5 -73.5t-74.5 -30.5z" />
    <glyph glyph-name="zdotaccent" unicode="&#x17c;" horiz-adv-x="1082" 
d="M131 0v100l660 854v12h-659v111h816v-101l-658 -853v-12h660v-111h-819zM536 1280q-45 0 -77 32.5t-32 77.5t32 77t77 32t77 -32t32 -77t-32 -77.5t-77 -32.5z" />
    <glyph glyph-name="Zcaron" unicode="&#x17d;" horiz-adv-x="1328" 
d="M138 0v99l863 1208v12h-834v124h1011v-100l-860 -1207v-12h872v-124h-1052zM600 1577l-287 297h155l190 -203h12l190 203h155l-287 -297h-128z" />
    <glyph glyph-name="zcaron" unicode="&#x17e;" horiz-adv-x="1082" 
d="M131 0v100l660 854v12h-659v111h816v-101l-658 -853v-12h660v-111h-819zM613 1228h-154l-275 332h153l193 -243h12l193 243h153z" />
    <glyph glyph-name="uni04D8" unicode="&#x4d8;" horiz-adv-x="1501" 
d="M737 -30q-282 0 -446.5 190t-166.5 518v67h1094v23q1 258 -137.5 418t-366.5 160q-153 0 -262 -65t-163 -191h-140q61 178 213 280.5t354 102.5q298 0 473 -202.5t175 -547.5q0 -224 -77.5 -395t-220 -264.5t-329.5 -93.5zM740 97q196 0 325.5 143.5t149.5 382.5h-942
q12 -245 137 -385.5t330 -140.5z" />
    <glyph glyph-name="uni04D8" unicode="&#x18f;" horiz-adv-x="1501" 
d="M737 -30q-282 0 -446.5 190t-166.5 518v67h1094v23q1 258 -137.5 418t-366.5 160q-153 0 -262 -65t-163 -191h-140q61 178 213 280.5t354 102.5q298 0 473 -202.5t175 -547.5q0 -224 -77.5 -395t-220 -264.5t-329.5 -93.5zM740 97q196 0 325.5 143.5t149.5 382.5h-942
q12 -245 137 -385.5t330 -140.5z" />
    <glyph glyph-name="florin" unicode="&#x192;" horiz-adv-x="1321" 
d="M1228 1446v-120q-71 20 -180 20q-230 0 -266 -238l-40 -256h395v-111h-412l-66 -429q-51 -334 -373 -334q-102 0 -198 23v127q90 -29 187 -29q218 0 253 224l64 418h-362v111h379l41 265q26 168 125 258.5t258 90.5q109 0 195 -20z" />
    <glyph glyph-name="Ohorn" unicode="&#x1a0;" horiz-adv-x="1579" 
d="M781 -30q-304 0 -479 202.5t-175 549.5q0 346 176 548.5t478 202.5q70 0 195 -17t209 -17q80 0 110 23t30 84v129h122v-168q0 -84 -53.5 -127t-148.5 -43h-72v-9q118 -69 189 -234.5t71 -371.5q0 -347 -174.5 -549.5t-477.5 -202.5zM781 97q237 0 375 170t137 455
q0 287 -137.5 455.5t-374.5 168.5q-236 0 -375 -168.5t-139 -455.5q0 -286 138 -455.5t376 -169.5z" />
    <glyph glyph-name="ohorn" unicode="&#x1a1;" horiz-adv-x="1240" 
d="M604 101q166 0 260 116.5t94 321.5t-94 321.5t-260 116.5t-260 -116.5t-94 -321.5t94 -321.5t260 -116.5zM1094 539q0 -257 -132 -407t-358 -150t-357.5 150t-131.5 407t131.5 406.5t357.5 149.5q64 0 147 -11t134 -11q67 0 92 21.5t25 76.5v132h122v-171
q0 -75 -42.5 -114t-109.5 -39q-29 0 -67 2v-6q87 -50 138 -165.5t51 -270.5z" />
    <glyph glyph-name="Uhorn" unicode="&#x1af;" horiz-adv-x="1629" 
d="M747 -26q-254 0 -406 143.5t-152 382.5v943h136v-934q0 -186 115.5 -297.5t306.5 -111.5q192 0 307 111.5t115 297.5v934h163q101 0 101 94v158h122v-182q0 -82 -51 -126t-138 -44h-60v-843q0 -239 -152.5 -382.5t-406.5 -143.5z" />
    <glyph glyph-name="uhorn" unicode="&#x1b0;" horiz-adv-x="1317" 
d="M887 194q-41 -101 -132 -156.5t-219 -55.5q-179 0 -277.5 104.5t-98.5 290.5v700h131v-667q0 -151 70.5 -229.5t208.5 -78.5q150 0 236.5 90.5t86.5 244.5v640h137q100 0 100 94v143h123v-167q0 -82 -51 -126t-138 -44h-40v-977h-125v194h-12z" />
    <glyph glyph-name="uni01C4" unicode="&#x1c4;" horiz-adv-x="2799" 
d="M185 1443h475q327 0 506 -191t179 -530q0 -340 -178.5 -531t-506.5 -191h-475v1443zM322 1319v-1195h330q263 0 408 158t145 439t-145 439.5t-408 158.5h-330zM1609 0v99l863 1208v12h-834v124h1011v-100l-860 -1207v-12h872v-124h-1052zM2071 1577l-287 297h155
l190 -203h12l190 203h155l-287 -297h-128z" />
    <glyph glyph-name="uni01C5" unicode="&#x1c5;" horiz-adv-x="2553" 
d="M185 1443h475q327 0 506 -191t179 -530q0 -340 -178.5 -531t-506.5 -191h-475v1443zM322 1319v-1195h330q263 0 408 158t145 439t-145 439.5t-408 158.5h-330zM1602 0v100l660 854v12h-659v111h816v-101l-658 -853v-12h660v-111h-819zM2084 1228h-154l-275 332h153
l193 -243h12l193 243h153z" />
    <glyph glyph-name="uni01C6" unicode="&#x1c6;" horiz-adv-x="2337" 
d="M571 -18q-206 0 -331 152.5t-125 403.5q0 250 125.5 403.5t330.5 153.5q123 0 220 -61t143 -167h12v639h131v-1506h-126v215h-12q-48 -108 -146.5 -170.5t-221.5 -62.5zM599 977q-160 0 -254.5 -119t-94.5 -319q0 -201 94.5 -319.5t254.5 -118.5q159 0 254 119t95 319
q0 198 -95.5 318t-253.5 120zM1387 0v100l660 854v12h-659v111h816v-101l-658 -853v-12h660v-111h-819zM1869 1228h-154l-275 332h153l193 -243h12l193 243h153z" />
    <glyph glyph-name="uni01C7" unicode="&#x1c7;" horiz-adv-x="2227" 
d="M1044 124v-124h-859v1443h137v-1319h722zM1231 330h136q5 -103 78 -168t186 -65q131 0 202.5 78.5t71.5 222.5v1045h137v-1050q0 -197 -110 -310t-300 -113q-175 0 -287.5 100.5t-113.5 259.5z" />
    <glyph glyph-name="uni01C8" unicode="&#x1c8;" horiz-adv-x="1627" 
d="M1044 124v-124h-859v1443h137v-1319h722zM1445 1077v-1145q0 -156 -74.5 -227.5t-228.5 -71.5h-24v113h21q94 0 134.5 42.5t40.5 139.5v1149h131zM1379 1317q-40 0 -68.5 29t-28.5 69t28.5 68.5t68.5 28.5t69 -28.5t29 -68.5q0 -41 -28.5 -69.5t-69.5 -28.5z" />
    <glyph glyph-name="uni01C9" unicode="&#x1c9;" horiz-adv-x="977" 
d="M179 0v1506h131v-1506h-131zM795 1077v-1145q0 -156 -74.5 -227.5t-228.5 -71.5h-24v113h21q94 0 134.5 42.5t40.5 139.5v1149h131zM729 1317q-40 0 -68.5 29t-28.5 69t28.5 68.5t68.5 28.5t69 -28.5t29 -68.5q0 -41 -28.5 -69.5t-69.5 -28.5z" />
    <glyph glyph-name="uni01CA" unicode="&#x1ca;" horiz-adv-x="2582" 
d="M320 0h-135v1443h135l841 -1198h13v1198h135v-1443h-132l-844 1199h-13v-1199zM1586 330h136q5 -103 78 -168t186 -65q131 0 202.5 78.5t71.5 222.5v1045h137v-1050q0 -197 -110 -310t-300 -113q-175 0 -287.5 100.5t-113.5 259.5z" />
    <glyph glyph-name="uni01CB" unicode="&#x1cb;" horiz-adv-x="1983" 
d="M320 0h-135v1443h135l841 -1198h13v1198h135v-1443h-132l-844 1199h-13v-1199zM1800 1077v-1145q0 -156 -74.5 -227.5t-228.5 -71.5h-24v113h21q94 0 134.5 42.5t40.5 139.5v1149h131zM1734 1317q-40 0 -68.5 29t-28.5 69t28.5 68.5t68.5 28.5t69 -28.5t29 -68.5
q0 -41 -29 -69.5t-69 -28.5z" />
    <glyph glyph-name="uni01CC" unicode="&#x1cc;" horiz-adv-x="1673" 
d="M169 0v1077h125v-194h13q43 101 132 156.5t216 55.5q180 0 278.5 -103.5t98.5 -291.5v-700h-131v667q0 310 -281 310q-143 0 -231.5 -92.5t-88.5 -244.5v-640h-131zM1498 1077v-1145q0 -156 -74.5 -227.5t-228.5 -71.5h-24v113h21q94 0 134.5 42.5t40.5 139.5v1149h131z
M1432 1317q-40 0 -68.5 29t-28.5 69t28.5 68.5t68.5 28.5t69 -28.5t29 -68.5q0 -41 -29 -69.5t-69 -28.5z" />
    <glyph glyph-name="Acaron" unicode="&#x1cd;" horiz-adv-x="1363" 
d="M1145 0l-160 442h-606l-160 -442h-145l540 1443h136l539 -1443h-144zM675 1264l-255 -704h524l-256 704h-13zM618 1577l-287 297h155l190 -203h12l190 203h155l-287 -297h-128z" />
    <glyph glyph-name="acaron" unicode="&#x1ce;" horiz-adv-x="1125" 
d="M491 98q145 0 242.5 87.5t97.5 215.5v126l-319 -23q-271 -19 -271 -204q0 -92 70 -147t180 -55zM469 -18q-160 0 -261.5 86.5t-101.5 229.5q0 140 100 220.5t288 93.5l337 22v104q0 116 -68.5 178t-199.5 62q-111 0 -186.5 -44.5t-94.5 -122.5h-133q19 128 133.5 206
t284.5 78q189 0 292.5 -93.5t103.5 -262.5v-739h-126v185h-12q-49 -96 -143 -149.5t-213 -53.5zM644 1228h-154l-275 332h153l193 -243h12l193 243h153z" />
    <glyph glyph-name="Icaron" unicode="&#x1cf;" horiz-adv-x="507" 
d="M322 0h-137v1443h137v-1443zM190 1577l-287 297h155l190 -203h12l190 203h155l-287 -297h-128z" />
    <glyph glyph-name="icaron" unicode="&#x1d0;" horiz-adv-x="480" 
d="M175 0v1077h131v-1077h-131zM317 1228h-154l-275 332h153l193 -243h12l193 243h153z" />
    <glyph glyph-name="Ocaron" unicode="&#x1d1;" horiz-adv-x="1561" 
d="M781 1473q303 0 477.5 -202t174.5 -549t-174.5 -549.5t-477.5 -202.5q-304 0 -479 202.5t-175 549.5q0 346 176 548.5t478 202.5zM781 1346q-236 0 -375 -168.5t-139 -455.5q0 -286 138 -455.5t376 -169.5q237 0 374.5 169.5t137.5 455.5q0 287 -137.5 455.5
t-374.5 168.5zM717 1577l-287 297h155l190 -203h12l190 203h155l-287 -297h-128z" />
    <glyph glyph-name="ocaron" unicode="&#x1d2;" horiz-adv-x="1208" 
d="M604 -18q-226 0 -357.5 149.5t-131.5 407.5t131.5 407t357.5 149t358 -149t132 -407t-132 -407.5t-358 -149.5zM604 101q166 0 260 116.5t94 321.5t-94 321.5t-260 116.5t-260 -116.5t-94 -321.5t94 -321.5t260 -116.5zM681 1228h-154l-275 332h153l193 -243h12l193 243
h153z" />
    <glyph glyph-name="Ucaron" unicode="&#x1d3;" horiz-adv-x="1494" 
d="M325 1443v-934q0 -183 114 -296t308 -113t308 113t114 296v934h137v-943q0 -237 -151 -381.5t-408 -144.5q-256 0 -407 144.5t-151 381.5v943h136zM683 1577l-287 297h155l190 -203h12l190 203h155l-287 -297h-128z" />
    <glyph glyph-name="ucaron" unicode="&#x1d4;" horiz-adv-x="1193" 
d="M1024 1077v-1077h-125v194h-12q-41 -101 -132 -156.5t-219 -55.5q-179 0 -277.5 104.5t-98.5 290.5v700h131v-667q0 -151 70.5 -229.5t208.5 -78.5q150 0 236.5 90.5t86.5 244.5v640h131zM669 1228h-154l-275 332h153l193 -243h12l193 243h153z" />
    <glyph glyph-name="Udieresismacron" unicode="&#x1d5;" horiz-adv-x="1494" 
d="M325 1443v-934q0 -183 114 -296t308 -113t308 113t114 296v934h137v-943q0 -237 -151 -381.5t-408 -144.5q-256 0 -407 144.5t-151 381.5v943h136zM565 1778q41 0 70 -29t29 -70t-29 -70t-70 -29t-70 29t-29 70t29 70t70 29zM428 2016h638v-101h-638v101zM929 1778
q41 0 70 -29t29 -70t-29 -70t-70 -29t-70 29t-29 70t29 70t70 29z" />
    <glyph glyph-name="udieresismacron" unicode="&#x1d6;" horiz-adv-x="1193" 
d="M1024 1077v-1077h-125v194h-12q-41 -101 -132 -156.5t-219 -55.5q-179 0 -277.5 104.5t-98.5 290.5v700h131v-667q0 -151 70.5 -229.5t208.5 -78.5q150 0 236.5 90.5t86.5 244.5v640h131zM410 1240q-41 0 -70 29t-29 70q0 42 29 70.5t70 28.5t70 -28.5t29 -70.5
q0 -41 -29 -70t-70 -29zM774 1240q-41 0 -70 29t-29 70q0 42 29 70.5t70 28.5t70 -28.5t29 -70.5q0 -41 -29 -70t-70 -29zM918 1720v-106h-648v106h648z" />
    <glyph glyph-name="Udieresisacute" unicode="&#x1d7;" horiz-adv-x="1494" 
d="M325 1443v-934q0 -183 114 -296t308 -113t308 113t114 296v934h137v-943q0 -237 -151 -381.5t-408 -144.5q-256 0 -407 144.5t-151 381.5v943h136zM673 1839l231 217h174l-267 -217h-138zM565 1568q-42 0 -72 29.5t-30 72.5t30 72.5t72 29.5q43 0 72.5 -29.5t29.5 -72.5
t-29.5 -72.5t-72.5 -29.5zM929 1568q-43 0 -72.5 29.5t-29.5 72.5t29.5 72.5t72.5 29.5q42 0 72 -29.5t30 -72.5t-30 -72.5t-72 -29.5z" />
    <glyph glyph-name="udieresisacute" unicode="&#x1d8;" horiz-adv-x="1193" 
d="M1024 1077v-1077h-125v194h-12q-41 -101 -132 -156.5t-219 -55.5q-179 0 -277.5 104.5t-98.5 290.5v700h131v-667q0 -151 70.5 -229.5t208.5 -78.5q150 0 236.5 90.5t86.5 244.5v640h131zM510 1554l207 296h154l-229 -296h-132zM410 1228q-42 0 -72 29.5t-30 72.5
t30 72.5t72 29.5q43 0 72.5 -29.5t29.5 -72.5t-29.5 -72.5t-72.5 -29.5zM774 1228q-42 0 -72 29.5t-30 72.5t30 72.5t72 29.5q43 0 72.5 -29.5t29.5 -72.5t-29.5 -72.5t-72.5 -29.5z" />
    <glyph glyph-name="Udieresiscaron" unicode="&#x1d9;" horiz-adv-x="1494" 
d="M325 1443v-934q0 -183 114 -296t308 -113t308 113t114 296v934h137v-943q0 -237 -151 -381.5t-408 -144.5q-256 0 -407 144.5t-151 381.5v943h136zM674 1832l-285 224h172l180 -146h12l180 146h172l-285 -224h-146zM565 1778q41 0 70 -29t29 -70t-29 -70t-70 -29t-70 29
t-29 70t29 70t70 29zM929 1778q41 0 70 -29t29 -70t-29 -70t-70 -29t-70 29t-29 70t29 70t70 29z" />
    <glyph glyph-name="udieresiscaron" unicode="&#x1da;" horiz-adv-x="1193" 
d="M1024 1077v-1077h-125v194h-12q-41 -101 -132 -156.5t-219 -55.5q-179 0 -277.5 104.5t-98.5 290.5v700h131v-667q0 -151 70.5 -229.5t208.5 -78.5q150 0 236.5 90.5t86.5 244.5v640h131zM410 1228q-41 0 -70 29t-29 70q0 42 29 71t70 29t70 -29t29 -71q0 -41 -29 -70
t-70 -29zM774 1228q-41 0 -70 29t-29 70q0 42 29 71t70 29t70 -29t29 -71q0 -41 -29 -70t-70 -29zM669 1548h-154l-275 306h154l192 -217h12l192 217h154z" />
    <glyph glyph-name="Udieresisgrave" unicode="&#x1db;" horiz-adv-x="1494" 
d="M325 1443v-934q0 -183 114 -296t308 -113t308 113t114 296v934h137v-943q0 -237 -151 -381.5t-408 -144.5q-256 0 -407 144.5t-151 381.5v943h136zM833 1839h-138l-267 217h175zM565 1568q-42 0 -72 29.5t-30 72.5t30 72.5t72 29.5q43 0 72.5 -29.5t29.5 -72.5
t-29.5 -72.5t-72.5 -29.5zM929 1568q-43 0 -72.5 29.5t-29.5 72.5t29.5 72.5t72.5 29.5q42 0 72 -29.5t30 -72.5t-30 -72.5t-72 -29.5z" />
    <glyph glyph-name="udieresisgrave" unicode="&#x1dc;" horiz-adv-x="1193" 
d="M1024 1077v-1077h-125v194h-12q-41 -101 -132 -156.5t-219 -55.5q-179 0 -277.5 104.5t-98.5 290.5v700h131v-667q0 -151 70.5 -229.5t208.5 -78.5q150 0 236.5 90.5t86.5 244.5v640h131zM674 1554h-132l-229 296h154zM410 1228q-42 0 -72 29.5t-30 72.5t30 72.5t72 29.5
q43 0 72.5 -29.5t29.5 -72.5t-29.5 -72.5t-72.5 -29.5zM774 1228q-42 0 -72 29.5t-30 72.5t30 72.5t72 29.5q43 0 72.5 -29.5t29.5 -72.5t-29.5 -72.5t-72.5 -29.5z" />
    <glyph glyph-name="uni04D9" unicode="&#x4d9;" horiz-adv-x="1193" 
d="M589 99q148 0 241.5 101.5t102.5 271.5h-672q2 -170 91 -271.5t237 -101.5zM274 808h-133q45 134 160 210.5t279 76.5q226 0 357.5 -150t131.5 -405q0 -254 -131 -406t-351 -152q-215 0 -339 144.5t-124 395.5l2 57h807v6q0 177 -98 285.5t-255 108.5q-222 0 -306 -171z
" />
    <glyph glyph-name="uni04D9" unicode="&#x259;" horiz-adv-x="1193" 
d="M589 99q148 0 241.5 101.5t102.5 271.5h-672q2 -170 91 -271.5t237 -101.5zM274 808h-133q45 134 160 210.5t279 76.5q226 0 357.5 -150t131.5 -405q0 -254 -131 -406t-351 -152q-215 0 -339 144.5t-124 395.5l2 57h807v6q0 177 -98 285.5t-255 108.5q-222 0 -306 -171z
" />
    </font>
</defs>
</svg>
